+1

Сигнал бедствия / Mayday (2021) BDRip 1080p от селезень | iTunes

Информация о фильме
Название: Сигнал бедствия
Оригинальное название: Mayday
Год выхода: 2021
Жанр: фэнтези, драма, детектив
Режиссер: Карен Чинорре
В ролях: Грэйс Ван Паттен, Миа Гот, Хавана Роуз Лью, Стефани Соколински, Теодор Пеллерен, Джульетт Льюис, Франо Маскович, Златко Бурич, Франческо Пьячентини-Смит, Натаниэл Аллен

О фильме: Уставшая от своей серой жизни Ана переносится в другую реальность, где встречает небольшую группу девушек, живущую на берегу бескрайнего моря. В этом мире вечная весна, а на фоне залитых солнцем пейзажей идёт бесконечная война. Подобно сиренам, девушки посылают сигналы бедствия, обрекая несчастных моряков на погибель. Но когда ситуация начинает выходить из-под контроля, Ана понимает, что, возможно, в этом мире ей не место, а путь назад таит в себе множество опасностей…

Страна: США
Студия: Complementary Colors, Magnolia Pictures, Queen's Army, Secret Engine
Продолжительность: 01:39:39
Перевод: Дублированный | iTunes

Качество: BDRip 1080p
Видео: MPEG-4 AVC, 1920x804, 18.8 Mbit/s, 23.976 fps
Аудио #01: 48 kHz, AC3, 5.1, 384 Kbps | iTunes | RUS |Сигнал бедствия / Mayday (2021) BDRip 1080p от селезень | iTunes
Аудио #02: 48 kHz, AC3, 5.1, 640 Kbps | Оригинал | ENG |
Субтитры: Русские (Full), английские

Авторизуйтесь для получения доступа к скачиванию

Нет аккаунта? Регистрация открыта и займёт меньше минуты

Вход Регистрация

General
Unique ID : 181655688736066884544969894725123524551 (0x88A99CF0E0C9EF693F965DF6178347C7)
Complete name : D:\Video\Mayday.2021.BDRip.1080p.seleZen.mkv
Format : Matroska
Format version : Version 4
File size : 13.8 GiB
Duration : 1 h 39 min
Overall bit rate : 19.9 Mb/s
Movie name : Mayday 2021 from seleZen
Encoded date : UTC 2021-12-17 15:59:27
Writing application : mkvmerge v59.0.0 ('Shining Star') 64-bit
Writing library : libebml v1.4.2 + libmatroska v1.6.4

Video
ID : 1
Format : AVC
Format/Info : Advanced Video Codec
Format profile : [email protected]
Format settings : CABAC / 5 Ref Frames
Format settings, CABAC : Yes
Format settings, Reference : 5 frames
Codec ID : V_MPEG4/ISO/AVC
Duration : 1 h 39 min
Bit rate : 18.8 Mb/s
Width : 1 920 pixels
Height : 804 pixels
Display aspect ratio : 2.40:1
Frame rate mode : Constant
Frame rate : 23.976 (24000/1001) FPS
Color space : YUV
Chroma subsampling : 4:2:0
Bit depth : 8 bits
Scan type : Progressive
Bits/(Pixel*Frame) : 0.509
Stream size : 13.1 GiB (95%)
Title : MTeam\
Writing library : x264 core 157 r2938 2b00a84 [email protected] Mod
Encoding settings : cabac=1 / ref=5 / deblock=1:-3:-3 / analyse=0x3:0x133 / me=umh / subme=10 / psy=1 / psy_rd=1.05:0.00 / mixed_ref=1 / me_range=32 / chroma_me=1 / trellis=2 / 8x8dct=1 / cqm=0 / deadzone=21,11 / fast_pskip=0 / chroma_qp_offset=-2 / threads=12 / lookahead_threads=2 / sliced_threads=0 / nr=0 / decimate=0 / interlaced=0 / bluray_compat=0 / constrained_intra=0 / bframes=8 / b_pyramid=2 / b_adapt=2 / b_bias=0 / direct=3 / weightb=1 / open_gop=0 / weightp=2 / keyint=250 / keyint_min=24 / scenecut=40 / intra_refresh=0 / rc_lookahead=250 / rc=crf / mbtree=0 / crf=16.8 / qcomp=0.60 / qpmin=0 / qpmax=69 / qpstep=4 / vbv_maxrate=62500 / vbv_bufsize=78125 / crf_max=0.0 / nal_hrd=none / filler=0 / ip_ratio=1.30 / pb_ratio=1.20 / aq=3:0.80
Language : English
Default : Yes
Forced : No
Color range : Limited
Color primaries : BT.709
Matrix coefficients : BT.709

Audio #1
ID : 2
Format : AC-3
Format/Info : Audio Coding 3
Commercial name : Dolby Digital
Codec ID : A_AC3
Duration : 1 h 39 min
Bit rate mode : Constant
Bit rate : 384 kb/s
Channel(s) : 6 channels
Channel layout : L R C LFE Ls Rs
Sampling rate : 48.0 kHz
Frame rate : 31.250 FPS (1536 SPF)
Compression mode : Lossy
Stream size : 274 MiB (2%)
Title : iTunes
Language : Russian
Service kind : Complete Main
Default : Yes
Forced : Yes

Audio #2
ID : 3
Format : AC-3
Format/Info : Audio Coding 3
Commercial name : Dolby Digital
Codec ID : A_AC3
Duration : 1 h 39 min
Bit rate mode : Constant
Bit rate : 640 kb/s
Channel(s) : 6 channels
Channel layout : L R C LFE Ls Rs
Sampling rate : 48.0 kHz
Frame rate : 31.250 FPS (1536 SPF)
Compression mode : Lossy
Stream size : 456 MiB (3%)
Title : Original
Language : English
Service kind : Complete Main
Default : No
Forced : No

Text #1
ID : 4
Format : UTF-8
Codec ID : S_TEXT/UTF8
Codec ID/Info : UTF-8 Plain Text
Duration : 1 h 34 min
Bit rate : 50 b/s
Count of elements : 1101
Stream size : 34.7 KiB (0%)
Language : Russian
Default : No
Forced : No

Text #2
ID : 5
Format : UTF-8
Codec ID : S_TEXT/UTF8
Codec ID/Info : UTF-8 Plain Text
Duration : 1 h 38 min
Bit rate : 32 b/s
Count of elements : 891
Stream size : 23.6 KiB (0%)
Language : English
Default : No
Forced : No

Menu
00:00:00.000 : Chapter 01
00:08:35.515 : Chapter 02
00:14:36.876 : Chapter 03
00:20:59.258 : Chapter 04
00:28:39.718 : Chapter 05
00:38:26.304 : Chapter 06
00:45:46.744 : Chapter 07
00:51:46.103 : Chapter 08
00:58:56.533 : Chapter 09
01:06:26.983 : Chapter 10
01:14:19.455 : Chapter 11
01:23:18.994 : Chapter 12
01:33:35.610 : Chapter 13

Другие фильмы
У данной публикации пока нет комментариев.
Будь первым, оставь своё мнение в комментариях!
Информация
Посетители, находящиеся в группе Гости, не могут оставлять комментарии к данной публикации.
Самый популярный релиз недели
HDR BDRemux 2160p 47.22 Gb ...

Кино копилка
...
Какую тему вы используете?

Реклама
Последние комментарии
...

Desol

Вчера, 21:49

...

dembell56

Вчера, 21:20

...

Slovilka

24 сентября 2022 11:39

...

Robot

23 сентября 2022 21:31

...

Bhaar

23 сентября 2022 20:58