+1

Тюрьма суперзлодеев / Корректирующие меры / Corrective Measures (2022) BDRip 1080p от селезень | D

Информация о фильме
Название: Тюрьма суперзлодеев / Корректирующие меры
Оригинальное название: Corrective Measures
Год выхода: 2022
Жанр: Фантастика, боевик, триллер
Режиссер: Шон Патрик О’Рейли
В ролях: Брюс Уиллис, Майкл Рукер, Томас Кавана, Бреннан Мейя, Кевин Зегерс, Дэн Пэйн, Celia Aloma, Хейли Сэйлс, Катрина Мёльман, Мэтт Андерсон

О фильме:
Они — худшие из худших. Их девиз: с великой силой приходит великая безответственность. Они суперзлодеи, обладающие нечеловеческими сверхспособностями. И на свете есть лишь одно место, способное их сдержать. Именно здесь, в тюрьме будущего, пересекаются пути преступного гения-телепата, жестокого мстителя, коррумпированного надзирателя и многих других. Кто-то из них затеял опасную игру, и каждому — будь то заключенный или охранник — в ней отведена особая роль.

Страна: США
Студия: Arcana Productions, Arcana Studio, Exchange, The, Tubi TV
Продолжительность: 01:47:04
Перевод: Дублированный | Lucky Production
Субтитры: Русские (Full), английские (Full)

Файл
Формат: Matroska
Качество: BDRip 1080p
Видео: 1920x804 at 23.976 fps, [email protected], ~9067 kbps
Аудио 1: AC3, 6 ch, ~448 kbps - | Русский | Тюрьма суперзлодеев / Корректирующие меры / Corrective Measures (2022) BDRip 1080p от селезень | D
Аудио 1: E-AC3, 6 ch, ~448 kbps - | Русский |
Аудио 2: AC3, 6 ch, ~640 kbps - | Английский |
Формат субтитров: softsub (SRT)

Тюрьма суперзлодеев / Корректирующие меры / Corrective Measures (2022) BDRip 1080p от селезень | D

Авторизуйтесь для получения доступа к скачиванию

Нет аккаунта? Регистрация открыта и займёт меньше минуты

Вход Регистрация

General
Unique ID : 280501393141299270357495424792151366222 (0xD3069A6E8C1590F0F2F285378B4E9A4E)
Complete name : D:VideoDCorrective.Measures.2022.BDRip.1080p.seleZen.mkv
Format : Matroska
Format version : Version 4
File size : 7.93 GiB
Duration : 1 h 47 min
Overall bit rate : 10.6 Mb/s
Movie name : Corrective Measures 2022 from seleZen
Encoded date : UTC 06.03.2023 12:34:49
Writing application : mkvmerge v59.0.0 ('Shining Star') 64-bit
Writing library : libebml v1.4.2 + libmatroska v1.6.4

Video
ID : 1
Format : AVC
Format/Info : Advanced Video Codec
Format profile : [email protected]
Format settings : CABAC / 5 Ref Frames
Format settings, CABAC : Yes
Format settings, Reference : 5 frames
Codec ID : V_MPEG4/ISO/AVC
Duration : 1 h 47 min
Bit rate : 9 067 kb/s
Width : 1 920 pixels
Height : 804 pixels
Display aspect ratio : 2.40:1
Frame rate mode : Constant
Frame rate : 23.976 (24000/1001) FPS
Color space : YUV
Chroma subsampling : 4:2:0
Bit depth : 8 bits
Scan type : Progressive
Bits/(Pixel*Frame) : 0.245
Stream size : 6.78 GiB (85%)
Writing library : x264 core 164 r3099+55M seleZen t_mod_New [(8 & 10)-bit@all X86_64]
Encoding settings : cabac=1 / ref=5 / deblock=1:-2:-2 / analyse=0×3:0×133 / me=umh / subme=10 / psy=1 / fade_compensate=0.00 / psy_rd=1.01:0.02 / mixed_ref=1 / me_range=32 / chroma_me=1 / trellis=2 / 8×8dct=1 / cqm=0 / deadzone=21,11 / fast_pskip=0 / chroma_qp_offset=-3 / threads=25 / lookahead_threads=4 / sliced_threads=0 / nr=0 / decimate=0 / interlaced=0 / bluray_compat=0 / constrained_intra=0 / fgo=0 / bframes=9 / b_pyramid=2 / b_adapt=2 / b_bias=0 / direct=3 / weightb=1 / open_gop=0 / weightp=2 / keyint=240 / keyint_min=23 / scenecut=40 / intra_refresh=0 / rc_lookahead=60 / rc=2pass / mbtree=0 / bitrate=9067 / ratetol=1.0 / qcomp=0.60 / qpmin=0:0:0 / qpmax=51:51:51 / qpstep=4 / cplxblur=20.0 / qblur=0.5 / vbv_maxrate=50000 / vbv_bufsize=62500 / nal_hrd=none / filler=0 / ip_ratio=1.40 / pb_ratio=1.30 / aq=3:0.80 / aq-sensitivity=10.00 / aq-factor=1.00:1.00:1.00 / aq2=0 / aq3=0
Language : English
Default : Yes
Forced : No

Audio #1
ID : 2
Format : AC-3
Format/Info : Audio Coding 3
Commercial name : Dolby Digital
Codec ID : A_AC3
Duration : 1 h 47 min
Bit rate mode : Constant
Bit rate : 448 kb/s
Channel (s) : 6 channels
Channel layout : L R C LFE Ls Rs
Sampling rate : 48.0 kHz
Frame rate : 31.250 FPS (1536 SPF)
Compression mode : Lossy
Stream size : 343 MiB (4%)
Title : Dub
Language : Russian
Service kind : Complete Main
Default : Yes
Forced : Yes

Audio #2
ID : 3
Format : E-AC-3
Format/Info : Enhanced AC-3
Commercial name : Dolby Digital Plus
Codec ID : A_EAC3
Duration : 1 h 47 min
Bit rate mode : Constant
Bit rate : 448 kb/s
Channel (s) : 6 channels
Channel layout : L R C LFE Ls Rs
Sampling rate : 48.0 kHz
Frame rate : 31.250 FPS (1536 SPF)
Compression mode : Lossy
Stream size : 343 MiB (4%)
Title : Dub
Language : Russian
Service kind : Complete Main
Default : No
Forced : No

Audio #3
ID : 4
Format : AC-3
Format/Info : Audio Coding 3
Commercial name : Dolby Digital
Codec ID : A_AC3
Duration : 1 h 47 min
Bit rate mode : Constant
Bit rate : 640 kb/s
Channel (s) : 6 channels
Channel layout : L R C LFE Ls Rs
Sampling rate : 48.0 kHz
Frame rate : 31.250 FPS (1536 SPF)
Compression mode : Lossy
Stream size : 490 MiB (6%)
Title : Original
Language : English
Service kind : Complete Main
Default : No
Forced : No

Text #1
ID : 5
Format : UTF-8
Codec ID : S_TEXT/UTF8
Codec ID/Info : UTF-8 Plain Text
Duration : 1 h 46 min
Bit rate : 87 b/s
Frame rate : 0.225 FPS
Count of elements : 1432
Stream size : 68.1 KiB (0%)
Title : Full
Language : Russian
Default : No
Forced : No

Text #2
ID : 6
Format : UTF-8
Codec ID : S_TEXT/UTF8
Codec ID/Info : UTF-8 Plain Text
Duration : 1 h 43 min
Bit rate : 71 b/s
Frame rate : 0.329 FPS
Count of elements : 2036
Stream size : 53.9 KiB (0%)
Title : Full
Language : English
Default : No
Forced : No

Menu
00:00:00.000 : en:Глава 01
00:09:28.443 : en:Глава 02
00:23:02.548 : en:Глава 03
00:31:07.699 : en:Глава 04
00:40:34.349 : en:Глава 05
00:54:06.493 : en:Глава 06
01:09:37.382 : en:Глава 07
01:25:46.516 : en:Глава 08
01:39:31.799 : en:Глава 09

Другие фильмы
Комментарии:

...
Desol 9 марта 2023 10:08
0

dembell56, терабокс, но там есть нюанс что они дают для ру пользователей только 10 гб, ну и ограничение на размер файла 4 гб.

...
dembell56 9 марта 2023 00:15
0

Desol,да делишки не в ту сторону пошли есть альтернатива  какие-то

...
Desol 9 марта 2023 00:09
0

dembell56, у яндекса лимит на загрузку файлов больше 1 гб. Можно загружать только менее 1гб на бесплатном тарифе

...
dembell56 8 марта 2023 23:25
0

А если на Яндекс  диск

...
Robot 8 марта 2023 23:08
0

dembell56, К сожалению гугл ввел ограничения на загрузку файлов в свое облако. В данный момент не представляется возможным туда хоть что то залить. По нормальному.

...
dembell56 8 марта 2023 19:22
0

Всем доброе время дня  а можно перенести  ето чудо  на G

drive ??? Я не могу неразрешено с торента пиздить пожалуйста  перезалеийте

Информация
Посетители, находящиеся в группе Гости, не могут оставлять комментарии к данной публикации.
Самый популярный релиз недели
Донаты
Мы в соц. сетях / RSS

Лучшие релизы месяца
Лучшие SD недели
Лучшие 720p недели
Лучшие 1080p недели
Лучшие 4K недели
Вы недавно смотрели
Реклама
Последние комментарии
...

-=DoMiNo=-

9 апреля 2024 17:43

...

supermehanik

9 апреля 2024 16:22

...

selezinka

5 апреля 2024 16:20

...

Kirk1991

30 марта 2024 15:04

...

Robot

22 марта 2024 09:33

Реклама