+9

Близнец / The Twin (2022) HDRip-AVC от DoMiNo & селезень | D

Информация о фильме
Название: Близнец
Оригинальное название: The Twin
Год выхода: 2022
Жанр: Ужасы, триллер, детектив
Режиссер: Танели Мустонен
В ролях: Тереза Палмер, Стивен Кри, Тристан Руджери, Эрго Куппас, Барбара Мартен

О фильме:
Пережив смерть одного из своих сыновей-близнецов, Рейчел и Энтони решают переехать на другой конец света в надежде начать новую главу. Но тихая скандинавская жизнь не задается. Рейчел вынуждена узнать мучительную правду о своем сыне и противостоять злым силам, которые пытаются завладеть мальчиком.

Страна: Финляндия
Студия: Don Films
Продолжительность: 01:48:13
Перевод: Дублированный | SoulPro
Субтитры: Английские

Файл
Формат: Matroska
Качество: HDRip-AVC
Видео: 1024x428 at 23.976 fps, [email protected], ~1435 kbps
Аудио 1: AC3, 6 ch, ~384 kbps - | Русский | Близнец / The Twin (2022) HDRip-AVC от DoMiNo & селезень | D
Аудио 2: AC3, 6 ch, ~448 kbps - | Английский |
Формат субтитров: softsub (SRT)

Близнец / The Twin (2022) HDRip-AVC от DoMiNo & селезень | D

Авторизуйтесь для получения доступа к скачиванию

Нет аккаунта? Регистрация открыта и займёт меньше минуты

Вход Регистрация

x264 [info]: frame I:1274 Avg QP:13.34 size: 61544
x264 [info]: frame P:30367 Avg QP:14.99 size: 18242
x264 [info]: frame B:124044 Avg QP:17.18 size: 4289
x264 [info]: consecutive B-frames: 1,7% 1,3% 4,8% 13,2% 13,8% 53,1% 6,1% 1,3% 1,4% 1,4% 1,0% 0,5% 0,1%

General
Unique ID : 339696134341895012107707364490617190823 (0xFF8F188097A84BF410F28483734279A7)
Complete name : D:The.Twin.2022.HDRip.x264.seleZen.mkv
Format : Matroska
Format version : Version 4
File size : 1.71 GiB
Duration : 1 h 48 min
Overall bit rate : 2 269 kb/s
Movie name : The.Twin.2022.HDRip.x264.seleZen
Encoded date : UTC 25.09.2022 14:03:19
Writing application : mkvmerge v70.0.0 ('Caught A Lite Sneeze') 64-bit
Writing library : libebml v1.4.2 + libmatroska v1.6.4
Cover : Yes
Attachments : cover.jpg / small_cover.jpg

Video
ID : 1
Format : AVC
Format/Info : Advanced Video Codec
Format profile : [email protected]
Format settings : CABAC / 14 Ref Frames
Format settings, CABAC : Yes
Format settings, Reference : 14 frames
Codec ID : V_MPEG4/ISO/AVC
Duration : 1 h 48 min
Bit rate : 1 435 kb/s
Width : 1 024 pixels
Height : 428 pixels
Display aspect ratio : 2.40:1
Frame rate mode : Constant
Frame rate : 23.976 (24000/1001) FPS
Color space : YUV
Chroma subsampling : 4:2:0
Bit depth : 8 bits
Scan type : Progressive
Bits/(Pixel*Frame) : 0.137
Stream size : 1.08 GiB (63%)
Title : -=DoMiNo=-
Writing library : x264 core 164 by -=DoMiNo=-
Encoding settings : cabac=1 / ref=14 / deblock=1:-3:-2 / analyse=0×3:0×133 / me=umh / subme=10 / psy=1 / psy_rd=1.02:0.02 / mixed_ref=1 / me_range=32 / chroma_me=1 / trellis=2 / 8×8dct=1 / cqm=0 / deadzone=21,11 / fast_pskip=1 / chroma_qp_offset=-3 / threads=16 / lookahead_threads=3 / sliced_threads=0 / nr=0 / decimate=1 / interlaced=0 / bluray_compat=0 / constrained_intra=0 / bframes=12 / b_pyramid=2 / b_adapt=2 / b_bias=0 / direct=1 / weightb=1 / open_gop=0 / weightp=2 / keyint=250 / keyint_min=23 / scenecut=40 / intra_refresh=0 / rc_lookahead=60 / rc=crf / mbtree=0 / crf=17.3 / qcomp=0.60 / qpmin=0 / qpmax=69 / qpstep=4 / vbv_maxrate=50000 / vbv_bufsize=62500 / crf_max=0.0 / nal_hrd=none / filler=0 / ip_ratio=1.40 / pb_ratio=1.30 / aq=3:0.80
Language : English
Default : Yes
Forced : No
Color range : Limited
Matrix coefficients : BT.709

Audio #1
ID : 2
Format : AC-3
Format/Info : Audio Coding 3
Commercial name : Dolby Digital
Codec ID : A_AC3
Duration : 1 h 48 min
Bit rate mode : Constant
Bit rate : 384 kb/s
Channel (s) : 6 channels
Channel layout : L R C LFE Ls Rs
Sampling rate : 48.0 kHz
Frame rate : 31.250 FPS (1536 SPF)
Compression mode : Lossy
Stream size : 297 MiB (17%)
Title : Dub
Language : Russian
Service kind : Complete Main
Default : Yes
Forced : Yes

Audio #2
ID : 3
Format : AC-3
Format/Info : Audio Coding 3
Commercial name : Dolby Digital
Codec ID : A_AC3
Duration : 1 h 48 min
Bit rate mode : Constant
Bit rate : 448 kb/s
Channel (s) : 6 channels
Channel layout : L R C LFE Ls Rs
Sampling rate : 48.0 kHz
Frame rate : 31.250 FPS (1536 SPF)
Compression mode : Lossy
Stream size : 347 MiB (20%)
Title : Original
Language : English
Service kind : Complete Main
Default : No
Forced : No

Text
ID : 4
Format : UTF-8
Codec ID : S_TEXT/UTF8
Codec ID/Info : UTF-8 Plain Text
Duration : 1 h 42 min
Bit rate : 27 b/s
Count of elements : 948
Stream size : 20.7 KiB (0%)
Title : Full
Language : English
Default : No
Forced : No

Menu
00:00:00.000 : en:Chapter 01
00:14:36.042 : en:Chapter 02
00:31:18.293 : en:Chapter 03
00:43:18.054 : en:Chapter 04
00:56:34.725 : en:Chapter 05
01:16:23.996 : en:Chapter 06
01:24:28.480 : en:Chapter 07
01:43:59.483 : en:Chapter 08

Другие фильмы
У данной публикации пока нет комментариев.
Будь первым, оставь своё мнение в комментариях!
Информация
Посетители, находящиеся в группе Гости, не могут оставлять комментарии к данной публикации.
Самый популярный релиз недели
BDRip 1080p 9.87 Gb ...

Кино копилка
...
Какую тему вы используете?

Реклама
Последние комментарии
...

bere

Сегодня, 12:40

...

Chilly

Сегодня, 12:17

...

Desol

Вчера, 15:18

...

ArchieBlake

Вчера, 07:46

...

павел

Вчера, 05:13

Реклама