+14

Любовь по вызову / Good Luck to You, Leo Grande (2022) BDRip-AVC от DoMiNo & селезень | D

Информация о фильме
Название: Любовь по вызову
Оригинальное название: Good Luck to You, Leo Grande
Год выпуска: 2022
Жанр: Комедия, Драма
Режиссер: Софи Хайд / Sophie Hyde
В ролях: Эмма Томпсон, Дэрил МакКормак, Изабелла Лафлэнд, Лес Мабалека, Ленни Беар, Карина Лопес, Шарлотта Уэр

О фильме:
Через два года после смерти мужа 60-летняя Нэнси Стоукс решает попробовать то, о чём мечтала многие годы — испытать удовольствие от секса. Она снимает номер в отеле и приглашает парня по вызову.

Выпущено: Великобритания, США
Студия: Align, Genesius Pictures
Продолжительность: 01:37:13
Перевод: Дублированный | Pride Production
Субтитры: Русские (Full), английские (SDH), испанские, португальские

Файл
Формат: Matroska
Качество: BDRip-AVC [Исх.Good.Luck.to.You.Leo.Grande.2022.BDRemux.1080p.pk]
Видео: 1024×512 at 24.000 fps, [email protected], ~1705 kbps
Аудио: AC3, 6 ch, ~448 kbps — | Русский | Любовь по вызову / Good Luck to You, Leo Grande (2022) BDRip-AVC от DoMiNo & селезень | D
Формат субтитров: softsub (SRT)

Авторизуйтесь для получения доступа к скачиванию

Нет аккаунта? Регистрация открыта и займёт меньше минуты

Вход Регистрация

x264 [info]: frame I: 982 Avg QP: 13.12 size: 69635
x264 [info]: frame P: 26142 Avg QP: 15.21 size: 23242
x264 [info]: frame B: 112876 Avg QP: 16.82 size: 5022

General
Unique ID: 274257538851893356856437894185287202391 (0xCE5414A5CC5AEEED6F300C28A520B657)
Complete name: I: Good.Luck.to.You.Leo.Grande.2022.DUB.BDRip.x264.seleZen.mkv
Format: Matroska
Format version: Version 4
File size: 1.46 GiB
Duration: 1 h 37 min
Overall bit rate: 2 155 kb/s
Frame rate: 24.000 FPS
Movie name: Good.Luck.to.You.Leo.Grande.2022.DUB.BDRip.x264.seleZen
Encoded date: 31.03.2024 16:47:28 UTC
Writing application: mkvmerge v83.0 ('Circle Of Friends') 64-bit
Writing library: libebml v1.4.5 + libmatroska v1.7.1
Cover: Yes
Attachments: cover.jpg / small_cover.jpg

Video
ID: 1
Format: AVC
Format/Info: Advanced Video Codec
Format profile: [email protected]
Format settings: CABAC / 14 Ref Frames
Format settings, CABAC: Yes
Format settings, Reference: 14 frames
Codec ID: V_MPEG4/ISO/AVC
Duration: 1 h 37 min
Bit rate: 1 705 kb/s
Width: 1 024 pixels
Height: 512 pixels
Display aspect ratio: 2.000
Frame rate mode: Constant
Frame rate: 24.000 FPS
Color space: YUV
Chroma subsampling: 4:2:0
Bit depth: 8 bits
Scan type: Progressive
Bits/(Pixel*Frame): 0.136
Stream size: 1.16 GiB (79%)
Title: -=DoMiNo=-
Writing library: x264 core 164 r3190 -DoMiNo
Encoding settings: cabac=1 / ref=14 / deblock=1:-2:-2 / analyse=0×3:0×133 / me=umh / subme=10 / psy=1 / psy_rd=1.05:0.03 / mixed_ref=1 / me_range=32 / chroma_me=1 / trellis=2 / 8×8dct=1 / cqm=0 / deadzone=21,11 / fast_pskip=0 / chroma_qp_offset=-3 / threads=16 / lookahead_threads=4 / sliced_threads=0 / nr=0 / decimate=0 / interlaced=0 / bluray_compat=0 / constrained_intra=0 / bframes=10 / b_pyramid=2 / b_adapt=2 / b_bias=0 / direct=3 / weightb=1 / open_gop=0 / weightp=2 / keyint=240 / keyint_min=24 / scenecut=40 / intra_refresh=0 / rc_lookahead=60 / rc=2pass / mbtree=0 / bitrate=1705 / ratetol=1.0 / qcomp=0.60 / qpmin=0 / qpmax=69 / qpstep=4 / cplxblur=20.0 / qblur=0.5 / vbv_maxrate=50000 / vbv_bufsize=62500 / nal_hrd=none / filler=0 / ip_ratio=1.22 / pb_ratio=1.30 / aq=3:0.80
Language: English
Default: Yes
Forced: No
Color range: Limited
Color primaries: BT.709
Transfer characteristics: BT.709
Matrix coefficients: BT.709

Audio
ID: 2
Format: AC-3
Format/Info: Audio Coding 3
Commercial name: Dolby Digital
Codec ID: A_AC3
Duration: 1 h 37 min
Bit rate mode: Constant
Bit rate: 448 kb/s
Channel (s): 6 channels
Channel layout: L R C LFE Ls Rs
Sampling rate: 48.0 kHz
Frame rate: 31.250 FPS (1536 SPF)
Compression mode: Lossy
Stream size: 312 MiB (21%)
Title: Dub -Pride Production
Language: Russian
Service kind: Complete Main
Default: Yes
Forced: No

Text #1
ID: 3
Format: UTF-8
Codec ID: S_TEXT/UTF8
Codec ID/Info: UTF-8 Plain Text
Duration: 1 h 32 min
Bit rate: 106 b/s
Frame rate: 0.263 FPS
Count of elements: 1460
Stream size: 72.1 KiB (0%)
Title: Full
Language: Russian
Default: No
Forced: No

Text #2
ID: 4
Format: UTF-8
Codec ID: S_TEXT/UTF8
Codec ID/Info: UTF-8 Plain Text
Duration: 1 h 36 min
Bit rate: 86 b/s
Frame rate: 0.305 FPS
Count of elements: 1771
Stream size: 61.5 KiB (0%)
Title: SDH
Language: English
Default: No
Forced: No

Text #3
ID: 5
Format: UTF-8
Codec ID: S_TEXT/UTF8
Codec ID/Info: UTF-8 Plain Text
Duration: 1 h 35 min
Bit rate: 75 b/s
Frame rate: 0.259 FPS
Count of elements: 1493
Stream size: 52.7 KiB (0%)
Title: Spanish
Language: Spanish (Latin America)
Default: No
Forced: No

Text #4
ID: 6
Format: UTF-8
Codec ID: S_TEXT/UTF8
Codec ID/Info: UTF-8 Plain Text
Duration: 1 h 35 min
Bit rate: 70 b/s
Frame rate: 0.254 FPS
Count of elements: 1459
Stream size: 49.7 KiB (0%)
Title: Portuguese
Language: Portuguese (BR)
Default: No
Forced: No

Menu
00:00:00.000: en: Chapter 01
00:05:57.625: en: Chapter 02
00:15:42.375: en: Chapter 03
00:23:09.750: en: Chapter 04
00:32:57.583: en: Chapter 05
00:41:28.000: en: Chapter 06
00:51:52.208: en: Chapter 07
00:58:35.458: en: Chapter 08
01:05:32.458: en: Chapter 09
01:14:30.333: en: Chapter 10
01:21:20.292: en: Chapter 11
01:30:17.000: en: Chapter 12

Другие фильмы
У данной публикации пока нет комментариев.
Будь первым, оставь своё мнение в комментариях!
Информация
Посетители, находящиеся в группе Гости, не могут оставлять комментарии к данной публикации.
Самый популярный релиз недели
Донаты
Мы в соц. сетях / RSS

Лучшие релизы месяца
Лучшие SD недели
Лучшие 720p недели
Лучшие 1080p недели
Лучшие 4K недели
Вы недавно смотрели
Реклама
Последние комментарии
...

Tony1984

Сегодня, 14:36

...

bolonka123

Вчера, 10:05

...

Sergunka

17 апреля 2024 23:31

...

-=DoMiNo=-

17 апреля 2024 13:52

...

bolonka123

17 апреля 2024 11:43

Реклама