+7

Доктор Стрэндж: В мультивселенной безумия / Doctor Strange in the Multiverse of Madness (2022) WEB-DL 1080p от селезень | D, P, A | IMAX

Информация о фильме
Название: Доктор Стрэндж: В мультивселенной безумия
Оригинальное название: Doctor Strange in the Multiverse of Madness
Год выхода: 2022
Жанр: ужасы, фантастика, фэнтези, боевик, приключения
Режиссер: Сэм Рэйми
В ролях: Бенедикт Камбербэтч, Элизабет Олсен, Сочил Гомес, Бенедикт Вонг, Рэйчел МакАдамс, Чиветель Эджиофор, Патрик Стюарт, Джон Красински, Хейли Этвелл, Энсон Маунт

О фильме: Продолжение магических приключений Доктора Стрэнджа в новых мистических мирах и в противостоянии с новыми врагами.

Страна: США
Студия: Marvel Studios Inc., Truenorth Productions
Продолжительность: 02:06:31
Перевод(ы):
#1: Дублированный | Невафильм
#2: Профессиональный многоголосый | HDRezka Studio
#3: Профессиональный многоголосый | Jaskier
#4: Профессиональный многоголосый | NewComers
#4: Авторский | Д. Есарев


Качество: WEB-DL 1080p
Видео: MPEG-4 AVC, 1920x1080, 7488 Kbit/s, 23.976 fps
Аудио #01: 48 kHz, AC3, 5.1, 448 Kbps | Дублированный | RUS |Доктор Стрэндж: В мультивселенной безумия / Doctor Strange in the Multiverse of Madness (2022) WEB-DL 1080p от селезень | D, P, A | IMAX
Аудио #02: 48 kHz, AC3, 5.1, 448 Kbps | Профессиональный многоголосый | HDRezka Studio | RUS |
Аудио #03: 48 kHz, AC3, 5.1, 448 Kbps | Профессиональный многоголосый | Jaskier | RUS |
Аудио #04: 48 kHz, AC3, 5.1, 384 Kbps | Профессиональный многоголосый | NewComers | RUS |
Аудио #05: 48 kHz, AC3, 5.1, 640 Kbps | Авторский | Д. Есарев | RUS |
Аудио #06: 48 kHz, E-AC3+Atmos, 5.1, 768 Kbps | Оригинал | ENG |
Субтитры: Русские (2 x Forced, full), английские

Доктор Стрэндж: В мультивселенной безумия / Doctor Strange in the Multiverse of Madness (2022) WEB-DL 1080p от селезень | D, P, A | IMAX

Авторизуйтесь для получения доступа к скачиванию

Нет аккаунта? Регистрация открыта и займёт меньше минуты

Вход Регистрация

General
Unique ID : 13272588156960051568031118714247692060 (0x9FC351E87AE46AD699A70092459BF1C)
Complete name : E:\Videos\Doctor.Strange.in.the.Multiverse.of.Madness.2022.IMAX.WEB-DL.1080p.seleZen.mkv
Format : Matroska
Format version : Version 4
File size : 9.39 GiB
Duration : 2 h 6 min
Overall bit rate mode : Variable
Overall bit rate : 10.6 Mb/s
Movie name : Doctor.Strange.in.the.Multiverse.of.Madness.2022.IMAX.seleZen
Encoded date : UTC 2022-08-13 03:36:56
Writing application : mkvmerge v59.0.0 ('Shining Star') 64-bit
Writing library : libebml v1.4.2 + libmatroska v1.6.4

Video
ID : 1
Format : AVC
Format/Info : Advanced Video Codec
Format profile : [email protected]
Format settings : CABAC / 4 Ref Frames
Format settings, CABAC : Yes
Format settings, Reference : 4 frames
Codec ID : V_MPEG4/ISO/AVC
Duration : 2 h 6 min
Bit rate mode : Variable
Bit rate : 7 488 kb/s
Maximum bit rate : 12.7 Mb/s
Width : 1 920 pixels
Height : 1 080 pixels
Display aspect ratio : 16:9
Frame rate mode : Constant
Frame rate : 23.976 (24000/1001) FPS
Color space : YUV
Chroma subsampling : 4:2:0
Bit depth : 8 bits
Scan type : Progressive
Bits/(Pixel*Frame) : 0.151
Stream size : 6.62 GiB (70%)
Language : English
Default : No
Forced : No
Color range : Limited
Color primaries : BT.709
Transfer characteristics : BT.709
Matrix coefficients : BT.709

Audio #1
ID : 2
Format : AC-3
Format/Info : Audio Coding 3
Commercial name : Dolby Digital
Codec ID : A_AC3
Duration : 2 h 6 min
Bit rate mode : Constant
Bit rate : 448 kb/s
Channel(s) : 6 channels
Channel layout : L R C LFE Ls Rs
Sampling rate : 48.0 kHz
Frame rate : 31.250 FPS (1536 SPF)
Compression mode : Lossy
Stream size : 405 MiB (4%)
Title : Dub
Language : Russian
Service kind : Complete Main
Default : Yes
Forced : Yes

Audio #2
ID : 3
Format : AC-3
Format/Info : Audio Coding 3
Commercial name : Dolby Digital
Codec ID : A_AC3
Duration : 2 h 6 min
Bit rate mode : Constant
Bit rate : 448 kb/s
Channel(s) : 6 channels
Channel layout : L R C LFE Ls Rs
Sampling rate : 48.0 kHz
Frame rate : 31.250 FPS (1536 SPF)
Compression mode : Lossy
Stream size : 405 MiB (4%)
Title : MVO (HDRezka Studio)
Language : Russian
Service kind : Complete Main
Default : No
Forced : No

Audio #3
ID : 4
Format : AC-3
Format/Info : Audio Coding 3
Commercial name : Dolby Digital
Codec ID : A_AC3
Duration : 2 h 6 min
Bit rate mode : Constant
Bit rate : 448 kb/s
Channel(s) : 6 channels
Channel layout : L R C LFE Ls Rs
Sampling rate : 48.0 kHz
Frame rate : 31.250 FPS (1536 SPF)
Compression mode : Lossy
Stream size : 405 MiB (4%)
Title : MVO (Jaskier)
Language : Russian
Service kind : Complete Main
Default : No
Forced : No

Audio #4
ID : 5
Format : AC-3
Format/Info : Audio Coding 3
Commercial name : Dolby Digital
Codec ID : A_AC3
Duration : 2 h 6 min
Bit rate mode : Constant
Bit rate : 384 kb/s
Channel(s) : 6 channels
Channel layout : L R C LFE Ls Rs
Sampling rate : 48.0 kHz
Frame rate : 31.250 FPS (1536 SPF)
Compression mode : Lossy
Stream size : 348 MiB (4%)
Title : MVO (NewComers)
Language : Russian
Service kind : Complete Main
Default : No
Forced : No

Audio #5
ID : 6
Format : AC-3
Format/Info : Audio Coding 3
Commercial name : Dolby Digital
Codec ID : A_AC3
Duration : 2 h 6 min
Bit rate mode : Constant
Bit rate : 640 kb/s
Channel(s) : 6 channels
Channel layout : L R C LFE Ls Rs
Sampling rate : 48.0 kHz
Frame rate : 31.250 FPS (1536 SPF)
Compression mode : Lossy
Stream size : 579 MiB (6%)
Title : AVO [Yesarev]
Language : Russian
Service kind : Complete Main
Default : No
Forced : No

Audio #6
ID : 7
Format : E-AC-3 JOC
Format/Info : Enhanced AC-3 with Joint Object Coding
Commercial name : Dolby Digital Plus with Dolby Atmos
Codec ID : A_EAC3
Duration : 2 h 6 min
Bit rate mode : Constant
Bit rate : 768 kb/s
Channel(s) : 6 channels
Channel layout : L R C LFE Ls Rs
Sampling rate : 48.0 kHz
Frame rate : 31.250 FPS (1536 SPF)
Compression mode : Lossy
Stream size : 695 MiB (7%)
Title : Original
Language : English
Service kind : Complete Main
Default : No
Forced : No
Complexity index : 16
Number of dynamic objects : 15
Bed channel count : 1 channel
Bed channel configuration : LFE

Text #1
ID : 8
Format : UTF-8
Codec ID : S_TEXT/UTF8
Codec ID/Info : UTF-8 Plain Text
Duration : 2 h 4 min
Bit rate : 1 b/s
Frame rate : 0.002 FPS
Count of elements : 17
Stream size : 1.01 KiB (0%)
Title : Forced 1
Language : Russian
Default : Yes
Forced : Yes

Text #2
ID : 9
Format : UTF-8
Codec ID : S_TEXT/UTF8
Codec ID/Info : UTF-8 Plain Text
Duration : 25 min 8 s
Bit rate : 2 b/s
Frame rate : 0.007 FPS
Count of elements : 10
Stream size : 480 Bytes (0%)
Title : Forced 2
Language : Russian
Default : No
Forced : No

Text #3
ID : 10
Format : UTF-8
Codec ID : S_TEXT/UTF8
Codec ID/Info : UTF-8 Plain Text
Duration : 2 h 5 min
Bit rate : 68 b/s
Frame rate : 0.167 FPS
Count of elements : 1253
Stream size : 62.4 KiB (0%)
Title : Full
Language : Russian
Default : No
Forced : No

Text #4
ID : 11
Format : UTF-8
Codec ID : S_TEXT/UTF8
Codec ID/Info : UTF-8 Plain Text
Duration : 25 min 8 s
Bit rate : 1 b/s
Frame rate : 0.007 FPS
Count of elements : 10
Stream size : 265 Bytes (0%)
Title : Forced
Language : English
Default : No
Forced : No

Text #5
ID : 12
Format : UTF-8
Codec ID : S_TEXT/UTF8
Codec ID/Info : UTF-8 Plain Text
Duration : 55 min 41 s
Bit rate : 60 b/s
Frame rate : 0.297 FPS
Count of elements : 992
Stream size : 24.9 KiB (0%)
Title : Full
Language : English
Default : No
Forced : No

Text #6
ID : 13
Format : UTF-8
Codec ID : S_TEXT/UTF8
Codec ID/Info : UTF-8 Plain Text
Duration : 2 h 5 min
Bit rate : 36 b/s
Frame rate : 0.166 FPS
Count of elements : 1249
Stream size : 33.8 KiB (0%)
Title : SDH
Language : English
Default : No
Forced : No

Menu
00:00:00.000 : Chapter 01
00:03:51.398 : Chapter 02
00:08:26.506 : Chapter 03
00:14:19.442 : Chapter 04
00:18:23.061 : Chapter 05
00:24:37.602 : Chapter 06
00:37:58.153 : Chapter 07
00:47:15.502 : Chapter 08
00:50:03.545 : Chapter 09
00:55:51.059 : Chapter 10
00:59:46.336 : Chapter 11
01:02:19.656 : Chapter 12
01:05:18.418 : Chapter 13
01:07:20.790 : Chapter 14
01:15:03.586 : Chapter 15
01:17:01.871 : Chapter 16
01:19:18.383 : Chapter 17
01:23:29.342 : Chapter 18
01:26:34.194 : Chapter 19
01:28:51.206 : Chapter 20
01:34:47.270 : Chapter 21
01:37:38.650 : Chapter 22
01:41:27.629 : Chapter 23
01:51:03.288 : Chapter 24
01:53:26.473 : Chapter 25
01:55:38.855 : Chapter 26
01:56:32.075 : Chapter 27
01:58:48.378 : Chapter 28
01:59:25.665 : Chapter 29

Другие фильмы
У данной публикации пока нет комментариев.
Будь первым, оставь своё мнение в комментариях!
Информация
Посетители, находящиеся в группе Гости, не могут оставлять комментарии к данной публикации.
Самый популярный релиз недели
HDR BDRemux 2160p 47.22 Gb ...

Кино копилка
...
Какую тему вы используете?

Реклама
Последние комментарии
...

Desol

Вчера, 21:49

...

dembell56

Вчера, 21:20

...

Slovilka

24 сентября 2022 11:39

...

Robot

23 сентября 2022 21:31

...

Bhaar

23 сентября 2022 20:58