+1

Стеклоочиститель / The Windshield Wiper (2021) WEB-DLRip 720p от DoMiNo & селезень | P

Информация о фильме
Название: Стеклоочиститель
Оригинальное название: The Windshield Wiper
Год выхода: 2021
Жанр: Мультфильм, короткометражка, фэнтези, мелодрама, 18+
Режиссер: Альберто Мьельго
В ролях: Эбони Адамс, Чарли Бин, Зэкари Розенкранц, Эндрю Калдер, Альберто Мьельго…

О фильме:
Сидя в кафе и непрерывно куря, мужчина задается вопросом, что такое любовь.

Выпущено: США, Испания / Leo Sanchez Studio, Many Enterprises, Pastel, Pinkman TV
Продолжительность: 00:14:56
Перевод: Профессиональный (многоголосый закадровый) | Ozz
Субтитры: Русские (Full)

Файл
Формат: Matroska
Качество: WEB-DLRip 720p
Видео: 1280×714 at 24.000 fps, [email protected], ~4096 kbps
Аудио 1: AC3, 2 ch, ~192 kbps — | Русский | Стеклоочиститель / The Windshield Wiper (2021) WEB-DLRip 720p от DoMiNo & селезень | P
Аудио 2: AC3, 2 ch, ~192 kbps — | Английский |
Формат субтитров: softsub (SRT)

Рип от:-=DoMiNo=-

Стеклоочиститель / The Windshield Wiper (2021) WEB-DLRip 720p от DoMiNo & селезень | P

Авторизуйтесь для получения доступа к скачиванию

Нет аккаунта? Регистрация открыта и займёт меньше минуты

Вход Регистрация

x264 [info]: frame I:123 Avg QP:19.77 size:134751
x264 [info]: frame P:5351 Avg QP:20.69 size: 47103
x264 [info]: frame B:16029 Avg QP:22.10 size: 11861
x264 [info]: consecutive B-frames: 2,2% 4,1% 6,0% 52,4% 13,5% 15,8% 3,7% 1,7% 0,5% 0,0% 0,0% 0,0% 0,0%

General
Unique ID : 55516081793811928179160077413676946539 (0×29C402289C6D56940C68C7A244B3146B)
Complete name : A:The.Windshield.Wiper.2021.WEB-DLRip.720p.x264.seleZen.mkv
Format : Matroska
Format version : Version 4
File size : 479 MiB
Duration : 14 min 56 s
Overall bit rate : 4 484 kb/s
Movie name : The.Windshield.Wiper.2021.WEB-DLRip.720p.x264.seleZen
Encoded date : UTC 26.06.2022 20:22:06
Writing application : mkvmerge v63.0.0 ('Everything') 64-bit
Writing library : libebml v1.4.2 + libmatroska v1.6.4
Cover : Yes
Attachments : cover.jpg / small_cover.jpg

Video
ID : 1
Format : AVC
Format/Info : Advanced Video Codec
Format profile : [email protected]
Format settings : CABAC / 9 Ref Frames
Format settings, CABAC : Yes
Format settings, Reference : 9 frames
Codec ID : V_MPEG4/ISO/AVC
Duration : 14 min 55 s
Bit rate : 4 096 kb/s
Width : 1 280 pixels
Height : 714 pixels
Display aspect ratio : 16:9
Frame rate mode : Constant
Frame rate : 24.000 FPS
Color space : YUV
Chroma subsampling : 4:2:0
Bit depth : 8 bits
Scan type : Progressive
Bits/(Pixel*Frame) : 0.187
Stream size : 437 MiB (91%)
Title : -=DoMiNo=-
Writing library : x264 core 164 by -=DoMiNo=-
Encoding settings : cabac=1 / ref=9 / deblock=1:-2:-2 / analyse=0×3:0×133 / me=umh / subme=10 / psy=1 / psy_rd=1.00:0.15 / mixed_ref=1 / me_range=32 / chroma_me=1 / trellis=2 / 8×8dct=1 / cqm=0 / deadzone=21,11 / fast_pskip=0 / chroma_qp_offset=-3 / threads=22 / lookahead_threads=5 / sliced_threads=0 / nr=0 / decimate=1 / interlaced=0 / bluray_compat=0 / constrained_intra=0 / bframes=12 / b_pyramid=2 / b_adapt=2 / b_bias=0 / direct=1 / weightb=1 / open_gop=0 / weightp=2 / keyint=250 / keyint_min=24 / scenecut=40 / intra_refresh=0 / rc_lookahead=60 / rc=crf / mbtree=0 / crf=21.0 / qcomp=0.70 / qpmin=0 / qpmax=69 / qpstep=4 / vbv_maxrate=50000 / vbv_bufsize=62500 / crf_max=0.0 / nal_hrd=none / filler=0 / ip_ratio=1.35 / pb_ratio=1.25 / aq=1:0.90
Language : English
Default : Yes
Forced : No
Color range : Limited
Color primaries : BT.709
Transfer characteristics : BT.709
Matrix coefficients : BT.709

Audio #1
ID : 2
Format : AC-3
Format/Info : Audio Coding 3
Commercial name : Dolby Digital
Codec ID : A_AC3
Duration : 14 min 56 s
Bit rate mode : Constant
Bit rate : 192 kb/s
Channel (s) : 2 channels
Channel layout : L R
Sampling rate : 48.0 kHz
Frame rate : 31.250 FPS (1536 SPF)
Compression mode : Lossy
Stream size : 20.5 MiB (4%)
Title : MVO_[Ozz]
Language : Russian
Service kind : Complete Main
Default : Yes
Forced : Yes

Audio #2
ID : 3
Format : AC-3
Format/Info : Audio Coding 3
Commercial name : Dolby Digital
Codec ID : A_AC3
Duration : 14 min 55 s
Bit rate mode : Constant
Bit rate : 192 kb/s
Channel (s) : 2 channels
Channel layout : L R
Sampling rate : 48.0 kHz
Frame rate : 31.250 FPS (1536 SPF)
Compression mode : Lossy
Stream size : 20.5 MiB (4%)
Language : English
Service kind : Complete Main
Default : No
Forced : No

Text
ID : 4
Format : UTF-8
Codec ID : S_TEXT/UTF8
Codec ID/Info : UTF-8 Plain Text
Duration : 14 min 4 s
Bit rate : 50 b/s
Count of elements : 86
Stream size : 5.25 KiB (0%)
Language : Russian
Default : No
Forced : No

Другие фильмы
У данной публикации пока нет комментариев.
Будь первым, оставь своё мнение в комментариях!
Информация
Посетители, находящиеся в группе Гости, не могут оставлять комментарии к данной публикации.
Самый популярный релиз недели
Донаты
Мы в соц. сетях / RSS

Лучшие релизы месяца
Лучшие SD недели
Лучшие 720p недели
Лучшие 1080p недели
Лучшие 4K недели
Вы недавно смотрели
Реклама
Последние комментарии
...

zik77

2 марта 2024 07:26

...

korelov

23 февраля 2024 14:35

...

Desol

21 февраля 2024 00:28

...

diabloq

20 февраля 2024 14:17

...

slightlymad

17 февраля 2024 21:01

Реклама