+8

Чёрный телефон / The Black Phone (2021) BDRip-AVC от DoMiNo & селезень | P, A

Информация о фильме
Название: Чёрный телефон
Оригинальное название: The Black Phone
Жанр: Ужасы, триллер
Год выпуска: 2021
Режиссер: Скотт Дерриксон / Scott Derrickson
В ролях: Мэйсон Темз, Мадлен Макгроу, Итэн Хоук, Джереми Дэвис, Э. Роджер Митчелл, Трой Радсил, Джеймс Рэнсон, Мигель Казарез Мора, Ребекка Кларк, Дж. Гэйвен Уайлд

Описание:
Застенчивый, но умный 13-летний Финни Шоу похищен маньяком-убийцей и заперт в звуконепроницаемом подвале, откуда никто не услышит его крики о помощи. Но когда с неработающего телефона на стене раздается звонок, Финни обнаруживает, что может слышать голоса предыдущих жертв убийцы. Они хотят помочь мальчику избежать той ужасной участи, которая постигла их самих.

Страна: США
Студия: Universal Pictures, Blumhouse Productions, Crooked Highway
Продолжительность: 01:43:22
Перевод 1: Профессиональный (многоголосый, закадровый) | Jaskier***
Перевод 2: Профессиональный (многоголосый, закадровый) | TVShows
Перевод 3: Профессиональный (многоголосый, закадровый) | Д. Есарев***
Субтитры: Русские (Full (FOCS)), английские
***Присутствует ненормативная лексика!

Файл
Формат: Matroska
Качество: BDRip-AVC
Видео: 1024×428 at 23.976 fps, [email protected], ~1610 kbps
Аудио 1: AC3, 6 ch, ~384 kbps — | Русский | Чёрный телефон / The Black Phone (2021) BDRip-AVC от DoMiNo & селезень | P, A | Jaskier
Аудио 2: AC3, 2 ch, ~192 kbps — | Русский | | TVShows
Аудио 3: AC3, 6 ch, ~448 kbps — | Русский | | Д. Есарев
Аудио 4: AC3, 6 ch, ~448 kbps — | Английский | | Оригинал
Формат субтитров: softsub (SRT)

Чёрный телефон / The Black Phone (2021) BDRip-AVC от DoMiNo & селезень | P, A

Авторизуйтесь для получения доступа к скачиванию

Нет аккаунта? Регистрация открыта и займёт меньше минуты

Вход Регистрация

x264 [info]: frame I:1138 Avg QP:12.71 size: 47365
x264 [info]: frame P:27119 Avg QP:14.77 size: 18311
x264 [info]: frame B:120447 Avg QP:15.46 size: 5796

General
Unique ID : 303750623419080202641829027781903673605 (0xE4843DFC0776CBA672B8C897A4F06905)
Complete name : D:The.Black.Phone.2021.BDRip.x264.seleZen.mkv
Format : Matroska
Format version : Version 4
File size : 2.23 GiB
Duration : 1 h 43 min
Overall bit rate : 3 085 kb/s
Movie name : The.Black.Phone.2021.BDRip.x264.seleZen
Encoded date : UTC 08.08.2022 11:03:56
Writing application : mkvmerge v63.0.0 ('Everything') 64-bit
Writing library : libebml v1.4.2 + libmatroska v1.6.4
Cover : Yes
Attachments : cover.jpg / small_cover.jpg

Video
ID : 1
Format : AVC
Format/Info : Advanced Video Codec
Format profile : [email protected]
Format settings : CABAC / 12 Ref Frames
Format settings, CABAC : Yes
Format settings, Reference : 12 frames
Codec ID : V_MPEG4/ISO/AVC
Duration : 1 h 43 min
Bit rate : 1 610 kb/s
Width : 1 024 pixels
Height : 428 pixels
Display aspect ratio : 2.40:1
Frame rate mode : Constant
Frame rate : 23.976 (24000/1001) FPS
Color space : YUV
Chroma subsampling : 4:2:0
Bit depth : 8 bits
Scan type : Progressive
Bits/(Pixel*Frame) : 0.153
Stream size : 1.16 GiB (52%)
Title : -=DoMiNo=-
Writing library : x264 core 164 by -=DoMiNo=-
Encoding settings : cabac=1 / ref=12 / deblock=1:-3:-3 / analyse=0×3:0×133 / me=umh / subme=11 / psy=1 / psy_rd=1.05:0.05 / mixed_ref=1 / me_range=32 / chroma_me=1 / trellis=2 / 8×8dct=1 / cqm=0 / deadzone=21,11 / fast_pskip=0 / chroma_qp_offset=-3 / threads=17 / lookahead_threads=3 / sliced_threads=0 / nr=0 / decimate=0 / interlaced=0 / bluray_compat=0 / constrained_intra=0 / bframes=10 / b_pyramid=2 / b_adapt=2 / b_bias=0 / direct=1 / weightb=1 / open_gop=0 / weightp=2 / keyint=250 / keyint_min=23 / scenecut=40 / intra_refresh=0 / rc_lookahead=60 / rc=crf / mbtree=0 / crf=17.5 / qcomp=0.60 / qpmin=0 / qpmax=69 / qpstep=4 / vbv_maxrate=50000 / vbv_bufsize=62500 / crf_max=0.0 / nal_hrd=none / filler=0 / ip_ratio=1.30 / pb_ratio=1.20 / aq=3:0.80
Language : English
Default : Yes
Forced : No

Audio #1
ID : 2
Format : AC-3
Format/Info : Audio Coding 3
Commercial name : Dolby Digital
Codec ID : A_AC3
Duration : 1 h 43 min
Bit rate mode : Constant
Bit rate : 384 kb/s
Channel (s) : 6 channels
Channel layout : L R C LFE Ls Rs
Sampling rate : 48.0 kHz
Frame rate : 31.250 FPS (1536 SPF)
Compression mode : Lossy
Stream size : 284 MiB (12%)
Title : MVO [Jaskier]
Language : Russian
Service kind : Complete Main
Default : Yes
Forced : Yes

Audio #2
ID : 3
Format : AC-3
Format/Info : Audio Coding 3
Commercial name : Dolby Digital
Codec ID : A_AC3
Duration : 1 h 43 min
Bit rate mode : Constant
Bit rate : 192 kb/s
Channel (s) : 2 channels
Channel layout : L R
Sampling rate : 48.0 kHz
Frame rate : 31.250 FPS (1536 SPF)
Compression mode : Lossy
Stream size : 142 MiB (6%)
Title : MVO [TVShows]
Language : Russian
Service kind : Complete Main
Default : No
Forced : No

Audio #3
ID : 4
Format : AC-3
Format/Info : Audio Coding 3
Commercial name : Dolby Digital
Codec ID : A_AC3
Duration : 1 h 43 min
Bit rate mode : Constant
Bit rate : 448 kb/s
Channel (s) : 6 channels
Channel layout : L R C LFE Ls Rs
Sampling rate : 48.0 kHz
Frame rate : 31.250 FPS (1536 SPF)
Compression mode : Lossy
Stream size : 331 MiB (15%)
Title : AVO [Д. Есарев]
Language : Russian
Service kind : Complete Main
Default : No
Forced : No

Audio #4
ID : 5
Format : AC-3
Format/Info : Audio Coding 3
Commercial name : Dolby Digital
Codec ID : A_AC3
Duration : 1 h 43 min
Bit rate mode : Constant
Bit rate : 448 kb/s
Channel (s) : 6 channels
Channel layout : L R C LFE Ls Rs
Sampling rate : 48.0 kHz
Frame rate : 31.250 FPS (1536 SPF)
Compression mode : Lossy
Stream size : 331 MiB (15%)
Title : Original
Language : English
Service kind : Complete Main
Default : No
Forced : No

Text #1
ID : 6
Format : UTF-8
Codec ID : S_TEXT/UTF8
Codec ID/Info : UTF-8 Plain Text
Duration : 1 h 37 min
Bit rate : 59 b/s
Count of elements : 1010
Stream size : 42.4 KiB (0%)
Title : Full [FOCS]
Language : Russian
Default : No
Forced : No

Text #2
ID : 7
Format : UTF-8
Codec ID : S_TEXT/UTF8
Codec ID/Info : UTF-8 Plain Text
Duration : 1 h 42 min
Bit rate : 38 b/s
Count of elements : 1157
Stream size : 28.9 KiB (0%)
Title : Full
Language : English
Default : No
Forced : No

Text #3
ID : 8
Format : UTF-8
Codec ID : S_TEXT/UTF8
Codec ID/Info : UTF-8 Plain Text
Duration : 1 h 43 min
Bit rate : 46 b/s
Count of elements : 1439
Stream size : 35.5 KiB (0%)
Title : SDH
Language : English
Default : No
Forced : No

Menu
00:00:00.000 : en:Chapter 01
00:05:03.136 : en:Chapter 02
00:09:25.690 : en:Chapter 03
00:14:46.427 : en:Chapter 04
00:19:30.961 : en:Chapter 05
00:25:43.292 : en:Chapter 06
00:30:46.511 : en:Chapter 07
00:38:15.418 : en:Chapter 08
00:43:32.777 : en:Chapter 09
00:48:07.885 : en:Chapter 10
00:53:09.061 : en:Chapter 11
00:57:52.427 : en:Chapter 12
01:01:15.755 : en:Chapter 13
01:05:50.155 : en:Chapter 14
01:10:55.042 : en:Chapter 15
01:16:38.469 : en:Chapter 16
01:23:21.580 : en:Chapter 17
01:27:18.608 : en:Chapter 18
01:32:20.201 : en:Chapter 19
01:37:58.206 : en:Chapter 20

Другие фильмы
У данной публикации пока нет комментариев.
Будь первым, оставь своё мнение в комментариях!
Информация
Посетители, находящиеся в группе Гости, не могут оставлять комментарии к данной публикации.
Самый популярный релиз недели
HDR BDRemux 2160p 47.22 Gb ...

Кино копилка
...
Какую тему вы используете?

Реклама
Последние комментарии
...

Desol

Вчера, 21:49

...

dembell56

Вчера, 21:20

...

Slovilka

24 сентября 2022 11:39

...

Robot

23 сентября 2022 21:31

...

Bhaar

23 сентября 2022 20:58