+4

Малыш Кид / The Kid (2019) UHD BDRemux 2160p от селезень | 4K | SDR | iTunes

Информация о фильме
Название: Малыш Кид
Оригинальное название: The Kid
Год выхода: 2019
Жанр: вестерн, биография, драма
Режиссер: Винсент Д'Онофрио
В ролях: Джейк Шур, Лейла Джордж, Крис Пратт, Дэйн ДеХаан, Итан Хоук, Чарли Чаппель, Клинт Обенчейн, Крис Билсма, Чад Дашнау, Бен Дики

О фильме: История подростка Рио, который становится невольным свидетелем кровавой войны между легендарным бандитом Дикого Запада Билли Кидом по кличке Малыш Кид и жестоким шерифом Пэтом Гарреттом.

Страна: США
Студия: Mimran Schur Pictures, Suretone Pictures
Продолжительность: 01:39:56
Перевод: Дублированный | iTunes

Качество: BDRemux 2160p
Видео: 3840x2160 at 23.976 fps, MPEG-H HEVC SDR ~ 59000 kbps avg
Аудио #01: 48 kHz, AC3, 5.1, 384 Kbps | Дублированный | iTunes | RUS |Малыш Кид / The Kid (2019) UHD BDRemux 2160p от селезень | 4K | SDR | iTunes
Аудио #02: 48 kHz, DTS-HD MA, 5.1, 3473 Kbps | Оригинал | ENG |
Субтитры: Русские (Full), английские

Малыш Кид / The Kid (2019) UHD BDRemux 2160p от селезень | 4K | SDR | iTunes

Авторизуйтесь для получения доступа к скачиванию

Нет аккаунта? Регистрация открыта и займёт меньше минуты

Вход Регистрация

General
Unique ID : 235243913889452013507446145091293317194 (0xB0FA546DBCB09C920EA0C51FC1FE884A)
Complete name : D:\The.Kid.2019.BDREMUX.2160p.HDR.seleZen.mkv
Format : Matroska
Format version : Version 4
File size : 43.9 GiB
Duration : 1 h 39 min
Overall bit rate mode : Variable
Overall bit rate : 62.9 Mb/s
Movie name : The Kid 2019 from seleZen
Encoded date : UTC 2022-08-02 22:49:56
Writing application : mkvmerge v59.0.0 ('Shining Star') 64-bit
Writing library : libebml v1.4.2 + libmatroska v1.6.4

Video
ID : 1
ID in the original source m : 4113 (0x1011)
Format : HEVC
Format/Info : High Efficiency Video Coding
Format profile : Main [email protected]@High
Codec ID : V_MPEGH/ISO/HEVC
Duration : 1 h 39 min
Bit rate : 59.0 Mb/s
Width : 3 840 pixels
Height : 2 160 pixels
Display aspect ratio : 16:9
Frame rate mode : Constant
Frame rate : 23.976 (24000/1001) FPS
Color space : YUV
Chroma subsampling : 4:2:0 (Type 2)
Bit depth : 10 bits
Bits/(Pixel*Frame) : 0.297
Stream size : 41.2 GiB (94%)
Language : English
Default : Yes
Forced : No
Color range : Limited
Color primaries : BT.709
Transfer characteristics : BT.709
Matrix coefficients : BT.709
Original source medium : Blu-ray

Audio #1
ID : 2
Format : AC-3
Format/Info : Audio Coding 3
Commercial name : Dolby Digital
Codec ID : A_AC3
Duration : 1 h 39 min
Bit rate mode : Constant
Bit rate : 384 kb/s
Channel(s) : 6 channels
Channel layout : L R C LFE Ls Rs
Sampling rate : 48.0 kHz
Frame rate : 31.250 FPS (1536 SPF)
Compression mode : Lossy
Stream size : 274 MiB (1%)
Title : iTunes
Language : Russian
Service kind : Complete Main
Default : Yes
Forced : Yes

Audio #2
ID : 3
ID in the original source m : 4352 (0x1100)
Format : DTS XLL
Format/Info : Digital Theater Systems
Commercial name : DTS-HD Master Audio
Codec ID : A_DTS
Duration : 1 h 39 min
Bit rate mode : Variable
Bit rate : 3 473 kb/s
Channel(s) : 6 channels
Channel layout : C L R Ls Rs LFE
Sampling rate : 48.0 kHz
Frame rate : 93.750 FPS (512 SPF)
Bit depth : 24 bits
Compression mode : Lossless
Stream size : 2.42 GiB (6%)
Title : Original
Language : English
Default : No
Forced : No
Original source medium : Blu-ray

Text #1
ID : 4
Format : UTF-8
Codec ID : S_TEXT/UTF8
Codec ID/Info : UTF-8 Plain Text
Duration : 1 h 32 min
Bit rate : 82 b/s
Frame rate : 0.187 FPS
Count of elements : 1039
Stream size : 56.1 KiB (0%)
Title : Full
Language : Russian
Default : No
Forced : No

Text #2
ID : 5
Format : UTF-8
Codec ID : S_TEXT/UTF8
Codec ID/Info : UTF-8 Plain Text
Duration : 1 h 37 min
Bit rate : 50 b/s
Frame rate : 0.188 FPS
Count of elements : 1097
Stream size : 35.8 KiB (0%)
Title : SDH
Language : English
Default : No
Forced : No

Menu
00:00:00.000 : Chapter 01
00:10:01.225 : Chapter 02
00:20:01.116 : Chapter 03
00:30:03.134 : Chapter 04
00:40:02.900 : Chapter 05
00:50:03.583 : Chapter 06
01:00:03.558 : Chapter 07
01:10:04.867 : Chapter 08
01:20:06.510 : Chapter 09
01:30:06.025 : Chapter 10
01:33:26.517 : Chapter 11

Другие фильмы
Комментарии:

...
Robot 3 августа 2022 19:10
0

bolonka123, сделаем. sunglasses

...
bolonka123 3 августа 2022 18:05
0

А FHD BDRemux c iTunes переводом и без HDR планируется? Спасибо!

Информация
Посетители, находящиеся в группе Гости, не могут оставлять комментарии к данной публикации.
Самый популярный релиз недели
Донаты
Мы в соц. сетях / RSS

Лучшие релизы месяца
Лучшие SD недели
Лучшие 720p недели
Лучшие 1080p недели
Лучшие 4K недели
Вы недавно смотрели
Реклама
Последние комментарии
...

Al1ksandr

21 июня 2024 21:02

...

Bonzo

14 июня 2024 14:52

...

rmzshka

13 июня 2024 17:48

...

rmzshka

13 июня 2024 12:24

...

LisNick

13 июня 2024 08:45

Реклама