+6

Спаситель / Redeemer (2014) BDRip 1080p от DoMiNo & селезень | P

Информация о фильме
Название: Спаситель
Оригинальное название: Redeemer
Год выпуска: 2014
Жанр: Боевик, криминал
Режиссер: Эрнесто Диас Эспиноса
В ролях: Ноа Сеган, Марко Сарор, Лорето Аварена, Маурисио Диокарес, Борис Смирнов, Отилио Кастро

О фильме:
Бывший наёмный убийца Никки Пардо заключил сделку с Богом. Теперь каждый его день будет начинаться с того, что он держит пистолет у своего виска и спускает курок. За эти дни Пардо ни разу не умер, и он расценивает это как знамение того, что ему предначертано продолжать охоту за людьми, на которых он раньше работал.

Выпущено: Чили, США, Moral Brothers Entertainment, XYZ Films
Продолжительность: 01:29:57
Перевод: Профессиональный (многоголосый, закадровый) | OKKO
Субтитры: Английские

Файл
Формат: Matroska
Качество: BDRip 1080p
Видео: 1920×1080 at 23.976 fps, [email protected], ~12100 kbps
Аудио 1: AC3, 6 ch, ~384 kbps — | Русский | Спаситель / Redeemer (2014) BDRip 1080p от DoMiNo & селезень | P
Аудио 2: AC3, 6 ch, ~640 kbps — | Spanish + English |
Формат субтитров: softsub (SRT)

Спаситель / Redeemer (2014) BDRip 1080p от DoMiNo & селезень | P

Авторизуйтесь для получения доступа к скачиванию

Нет аккаунта? Регистрация открыта и займёт меньше минуты

Вход Регистрация

x264 [info]: frame I:923 Avg QP:14.21 size:206036
x264 [info]: frame P:34331 Avg QP:15.76 size:104988
x264 [info]: frame B:94148 Avg QP:17.13 size: 46304
x264 [info]: consecutive B-frames: 6,0% 4,4% 16,4% 13,0% 10,7% 47,1% 1,2% 0,3% 0,4% 0,4%

General
Unique ID : 187233718207240732078895497388322702563 (0×8CDBE706ECFE5C039B362276EA3BC4E3)
Complete name : D:Redeemer.2014.BDRip.1080p.x264.seleZen.mkv
Format : Matroska
Format version : Version 4
File size : 8.24 GiB
Duration : 1 h 29 min
Overall bit rate : 13.1 Mb/s
Movie name : Redeemer.2014.BDRip.1080p.x264.seleZen
Encoded date : UTC 07.08.2022 20:27:27
Writing application : mkvmerge v63.0.0 ('Everything') 64-bit
Writing library : libebml v1.4.2 + libmatroska v1.6.4
Cover : Yes
Attachments : cover.jpg / small_cover.jpg

Video
ID : 1
Format : AVC
Format/Info : Advanced Video Codec
Format profile : [email protected]
Format settings : CABAC / 4 Ref Frames
Format settings, CABAC : Yes
Format settings, Reference : 4 frames
Codec ID : V_MPEG4/ISO/AVC
Duration : 1 h 29 min
Bit rate : 12.1 Mb/s
Width : 1 920 pixels
Height : 1 080 pixels
Display aspect ratio : 16:9
Frame rate mode : Constant
Frame rate : 23.976 (24000/1001) FPS
Color space : YUV
Chroma subsampling : 4:2:0
Bit depth : 8 bits
Scan type : Progressive
Bits/(Pixel*Frame) : 0.243
Stream size : 7.59 GiB (92%)
Title : -=DoMiNo=-
Writing library : x264 core 164 by -=DoMiNo=-
Encoding settings : cabac=1 / ref=4 / deblock=1:-3:-3 / analyse=0×3:0×133 / me=umh / subme=10 / psy=1 / psy_rd=1.05:0.05 / mixed_ref=1 / me_range=32 / chroma_me=1 / trellis=2 / 8×8dct=1 / cqm=0 / deadzone=21,11 / fast_pskip=0 / chroma_qp_offset=-3 / threads=24 / lookahead_threads=4 / sliced_threads=0 / nr=0 / decimate=0 / interlaced=0 / bluray_compat=0 / constrained_intra=0 / bframes=9 / b_pyramid=2 / b_adapt=2 / b_bias=0 / direct=1 / weightb=1 / open_gop=0 / weightp=2 / keyint=250 / keyint_min=23 / scenecut=40 / intra_refresh=0 / rc_lookahead=60 / rc=crf / mbtree=0 / crf=18.0 / qcomp=0.65 / qpmin=0 / qpmax=69 / qpstep=4 / vbv_maxrate=50000 / vbv_bufsize=62500 / crf_max=0.0 / nal_hrd=none / filler=0 / ip_ratio=1.30 / pb_ratio=1.20 / aq=3:0.80
Language : Multiple languages
Default : Yes
Forced : No
Color range : Limited
Color primaries : BT.709
Transfer characteristics : BT.709
Matrix coefficients : BT.709

Audio #1
ID : 2
Format : AC-3
Format/Info : Audio Coding 3
Commercial name : Dolby Digital
Codec ID : A_AC3
Duration : 1 h 29 min
Bit rate mode : Constant
Bit rate : 384 kb/s
Channel (s) : 6 channels
Channel layout : L R C LFE Ls Rs
Sampling rate : 48.0 kHz
Frame rate : 31.250 FPS (1536 SPF)
Compression mode : Lossy
Stream size : 247 MiB (3%)
Title : MVO [OKKO]
Language : Russian
Service kind : Complete Main
Default : Yes
Forced : Yes

Audio #2
ID : 3
Format : AC-3
Format/Info : Audio Coding 3
Commercial name : Dolby Digital
Codec ID : A_AC3
Duration : 1 h 29 min
Bit rate mode : Constant
Bit rate : 640 kb/s
Channel (s) : 6 channels
Channel layout : L R C LFE Ls Rs
Sampling rate : 48.0 kHz
Frame rate : 31.250 FPS (1536 SPF)
Compression mode : Lossy
Stream size : 412 MiB (5%)
Title : Spanish+English
Language : Multiple languages
Service kind : Complete Main
Default : No
Forced : No

Text #1
ID : 4
Format : UTF-8
Codec ID : S_TEXT/UTF8
Codec ID/Info : UTF-8 Plain Text
Duration : 1 h 23 min
Bit rate : 20 b/s
Count of elements : 503
Stream size : 12.4 KiB (0%)
Title : Forced
Language : English
Default : No
Forced : No

Text #2
ID : 5
Format : UTF-8
Codec ID : S_TEXT/UTF8
Codec ID/Info : UTF-8 Plain Text
Duration : 1 h 27 min
Bit rate : 32 b/s
Count of elements : 788
Stream size : 20.9 KiB (0%)
Title : All Parts / SDH Removed
Language : English
Default : No
Forced : No

Menu
00:00:00.000 : en:Amen
00:03:51.314 : en:Neo-Nazis
00:06:15.542 : en:The Redeemer
00:11:07.584 : en:The Scorpion
00:14:32.789 : en:Squeezing
00:19:08.814 : en:Seeking Refuge
00:22:27.179 : en:Dockfight
00:25:05.212 : en:Hideout
00:30:21.653 : en:The Redeemer Is Here
00:36:00.784 : en:The One Who Decides
00:41:57.473 : en:Kill Them All
00:45:43.282 : en:Fight of Icaro
00:51:33.424 : en:Forgiveness
00:56:43.442 : en:The Scorpion Is Here
01:00:58.029 : en:The Three of Us
01:03:10.286 : en:Warehouse Assault
01:07:50.149 : en:Stone Killer
01:11:32.955 : en:Who Can Kill A Child?
01:14:13.532 : en:One Last Game
01:18:03.762 : en:Redemption
01:25:01.513 : en:End

Другие фильмы
У данной публикации пока нет комментариев.
Будь первым, оставь своё мнение в комментариях!
Информация
Посетители, находящиеся в группе Гости, не могут оставлять комментарии к данной публикации.
Самый популярный релиз недели
HDR BDRemux 2160p 47.22 Gb ...

Кино копилка
...
Какую тему вы используете?

Реклама
Последние комментарии
...

Desol

Вчера, 21:49

...

dembell56

Вчера, 21:20

...

Slovilka

24 сентября 2022 11:39

...

Robot

23 сентября 2022 21:31

...

Bhaar

23 сентября 2022 20:58