+1

Я краснею / Turning Red (2022) BDRemux 1080p от селезень | D

Информация о фильме
Название: Я краснею
Оригинальное название: Turning Red
Год выхода: 2022
Жанр: мультфильм, фэнтези, комедия, приключения, семейный
Режиссер: Доми Ши
В ролях: Розали Чян, Сандра О, Ава Морс, Пак Хе-ин, Майтреи Рамакришнан, Орион Ли, Вай Чин Хо, Тристан Аллерик Чен, Лори Тан Чинн, Миа Тагано

О фильме: Торонто, 2002 год. Активная и неунывающая 13-летняя Мэйлинь всеми силами пытается быть первой во всём, чтобы угодить строгой гиперопекающей матери. Семья девочки живёт при храме и поклоняется Богине-прародительнице. Одним прекрасным утром Мэйлинь просыпается и вместо привычного отражения в зеркале видит красную панду - теперь, когда она волнуется, злится или испытывает другие сильные эмоции, превращается в большого зверя. Мало того, что это происходит в самые неподходящие моменты, так ещё и посещение концерта обожаемой Мэйлинь и её подружками мальчиковой группы 4-Town оказывается под угрозой.

Страна: США, Канада
Студия: Pixar Animation Studios, Walt Disney Pictures
Продолжительность: 01:39:40
Перевод: Дублированный

Качество: BDRemux 1080p
Видео: MPEG-4 AVC, 1920x1080, 27.9 Mbit/s, 23.976 fps
Аудио #01: 48 kHz, AC3, 5.1, 448 Kbps | Дублированный | RUS |Я краснею / Turning Red (2022) BDRemux 1080p от селезень | D
Аудио #02: 48 kHz, DTS-HD MA, 7.1, 4686 Kbps | Оригинал | ENG |
Субтитры: Русские (Forced, Full), английские

Я краснею / Turning Red (2022) BDRemux 1080p от селезень | D

Авторизуйтесь для получения доступа к скачиванию

Нет аккаунта? Регистрация открыта и займёт меньше минуты

Вход Регистрация

General
Unique ID : 105433554392054058026368886994349511794 (0x4F51C39288BE3CB234A027A37ADED472)
Complete name : D:\Turning.Red.2022.D.BDREMUX.1080p.seleZen.mkv
Format : Matroska
Format version : Version 4
File size : 23.0 GiB
Duration : 1 h 39 min
Overall bit rate mode : Variable
Overall bit rate : 33.0 Mb/s
Movie name : Turning Red 2022 from seleZen
Encoded date : UTC 2022-08-11 02:38:49
Writing application : mkvmerge v59.0.0 ('Shining Star') 64-bit
Writing library : libebml v1.4.2 + libmatroska v1.6.4

Video
ID : 1
Format : AVC
Format/Info : Advanced Video Codec
Format profile : [email protected]
Format settings : CABAC / 4 Ref Frames
Format settings, CABAC : Yes
Format settings, Reference : 4 frames
Codec ID : V_MPEG4/ISO/AVC
Duration : 1 h 39 min
Bit rate mode : Variable
Bit rate : 27.9 Mb/s
Maximum bit rate : 34.0 Mb/s
Width : 1 920 pixels
Height : 1 080 pixels
Display aspect ratio : 16:9
Frame rate mode : Constant
Frame rate : 23.976 (24000/1001) FPS
Color space : YUV
Chroma subsampling : 4:2:0
Bit depth : 8 bits
Scan type : Progressive
Bits/(Pixel*Frame) : 0.561
Stream size : 19.4 GiB (84%)
Language : English
Default : Yes
Forced : No

Audio #1
ID : 2
Format : AC-3
Format/Info : Audio Coding 3
Commercial name : Dolby Digital
Codec ID : A_AC3
Duration : 1 h 39 min
Bit rate mode : Constant
Bit rate : 448 kb/s
Channel(s) : 6 channels
Channel layout : L R C LFE Ls Rs
Sampling rate : 48.0 kHz
Frame rate : 31.250 FPS (1536 SPF)
Compression mode : Lossy
Stream size : 319 MiB (1%)
Title : Dub
Language : Russian
Service kind : Complete Main
Default : Yes
Forced : Yes

Audio #2
ID : 3
Format : DTS XLL
Format/Info : Digital Theater Systems
Commercial name : DTS-HD Master Audio
Codec ID : A_DTS
Duration : 1 h 39 min
Bit rate mode : Variable
Bit rate : 4 686 kb/s
Channel(s) : 8 channels
Channel layout : C L R LFE Lb Rb Lss Rss
Sampling rate : 48.0 kHz
Frame rate : 93.750 FPS (512 SPF)
Bit depth : 24 bits
Compression mode : Lossless
Stream size : 3.26 GiB (14%)
Title : Original
Language : English
Default : No
Forced : No

Text #1
ID : 4
Format : UTF-8
Codec ID : S_TEXT/UTF8
Codec ID/Info : UTF-8 Plain Text
Duration : 1 h 27 min
Bit rate : 0 b/s
Frame rate : 0.002 FPS
Count of elements : 12
Stream size : 548 Bytes (0%)
Title : Forced
Language : Russian
Default : Yes
Forced : Yes

Text #2
ID : 5
Format : UTF-8
Codec ID : S_TEXT/UTF8
Codec ID/Info : UTF-8 Plain Text
Duration : 1 h 37 min
Bit rate : 92 b/s
Frame rate : 0.253 FPS
Count of elements : 1487
Stream size : 66.2 KiB (0%)
Title : Full
Language : Russian
Default : No
Forced : No

Text #3
ID : 6
Format : UTF-8
Codec ID : S_TEXT/UTF8
Codec ID/Info : UTF-8 Plain Text
Duration : 1 h 37 min
Bit rate : 58 b/s
Frame rate : 0.288 FPS
Count of elements : 1694
Stream size : 42.0 KiB (0%)
Title : Full
Language : English
Default : No
Forced : No

Text #4
ID : 7
Format : UTF-8
Codec ID : S_TEXT/UTF8
Codec ID/Info : UTF-8 Plain Text
Duration : 1 h 38 min
Bit rate : 76 b/s
Frame rate : 0.363 FPS
Count of elements : 2138
Stream size : 54.7 KiB (0%)
Title : SDH
Language : English
Default : No
Forced : No

Menu
00:00:00.000 : Chapter 01
00:03:18.323 : Chapter 02
00:06:09.494 : Chapter 03
00:09:26.816 : Chapter 04
00:10:48.481 : Chapter 05
00:15:19.210 : Chapter 06
00:16:06.549 : Chapter 07
00:19:56.111 : Chapter 08
00:23:50.721 : Chapter 09
00:26:51.902 : Chapter 10
00:31:08.783 : Chapter 11
00:36:04.704 : Chapter 12
00:37:58.401 : Chapter 13
00:39:56.018 : Chapter 14
00:42:44.812 : Chapter 15
00:45:28.434 : Chapter 16
00:48:08.427 : Chapter 17
00:50:08.130 : Chapter 18
00:52:51.876 : Chapter 19
00:55:07.887 : Chapter 20
00:56:27.592 : Chapter 21
00:59:53.506 : Chapter 22
01:01:54.001 : Chapter 23
01:03:31.432 : Chapter 24
01:05:53.240 : Chapter 25
01:11:10.224 : Chapter 26
01:14:42.144 : Chapter 27
01:18:46.179 : Chapter 28
01:21:37.350 : Chapter 29
01:26:53.791 : Chapter 30
01:28:56.956 : Chapter 31
01:38:38.328 : Chapter 32

Другие фильмы
У данной публикации пока нет комментариев.
Будь первым, оставь своё мнение в комментариях!
Информация
Посетители, находящиеся в группе Гости, не могут оставлять комментарии к данной публикации.
Самый популярный релиз недели
HDR BDRemux 2160p 47.22 Gb ...

Кино копилка
...
Какую тему вы используете?

Реклама
Последние комментарии
...

Desol

Вчера, 21:49

...

dembell56

Вчера, 21:20

...

Slovilka

24 сентября 2022 11:39

...

Robot

23 сентября 2022 21:31

...

Bhaar

23 сентября 2022 20:58