+11

Преступница Эмили / Emily the Criminal (2022) WEB-DL 720p от DoMiNo & селезень | P, A

Информация о фильме
Название: Преступница Эмили
Оригинальное название: Emily the Criminal
Год выхода: 2022
Жанр: триллер, драма, криминал
Режиссер: Джон Паттон Форд
В ролях: Обри Плаза, Тео Росси, Рой Авигдори, Ким Ярбро, Джина Гершон, Бернардо Бадилло, Уэсли Хань, Уайатт Бэрриос, Мэгалин Эчиканвоке, Брэндон Скленар

О фильме:
Обремененная долгами Эмили пытается устроиться на нормальную работу, но везде получает отказы. Она знакомится с Юсефом, который предлагает ей поучаствовать в афере с кредитными картами. Жажда легкой наживы и острые ощущения быстро затягивают Эмили в преступный мир Лос-Анджелеса.

Страна: США
Продолжительность: 01:36:52
Перевод 1: Профессиональный многоголосый | Jaskier
Перевод 2: Авторский (одноголосый, закадровый) | М. Яроцкий
***Присутствует ненормативная лексика!
Субтитры: Английские, французские

Файл
Формат: Matroska
Качество: WEB-DL 720p | AMZN
Видео: 1248x520 at 23.976 fps, [email protected], ~5092 kbps
Аудио 1: AC3, 6 ch, ~448 kbps - | Русский | Преступница Эмили / Emily the Criminal (2022) WEB-DL 720p от DoMiNo & селезень | P, A | Jaskier
Аудио 2: AC3, 6 ch, ~448 kbps - | Русский | | М. Яроцкий
Аудио 3: E-AC3, 6 ch, ~640 kbps - | Английский | | Оригинал
Формат субтитров: softsub (SRT)

Преступница Эмили / Emily the Criminal (2022) WEB-DL 720p от DoMiNo & селезень | P, A

Авторизуйтесь для получения доступа к скачиванию

Нет аккаунта? Регистрация открыта и займёт меньше минуты

Вход Регистрация

General
Unique ID : 24334613873501309186659527684423055146 (0x124EAD18748C37EC05F05A83185A772A)
Complete name : D:DELtПреступница ЭмилиEmily.the.Criminal.2022.MVO.AVO.AMZN.WEB-DL.720p.x264.seleZen.mkv
Format : Matroska
Format version : Version 4
File size : 4.49 GiB
Duration : 1 h 36 min
Overall bit rate : 6 631 kb/s
Movie name : Emily.the.Criminal.2022.MVO.AVO.AMZN.WEB-DL.720p.x264.seleZen
Encoded date : UTC 2022-09-18 09:38:17
Writing application : mkvmerge v70.0.0 ('Caught A Lite Sneeze') 64-bit
Writing library : libebml v1.4.2 + libmatroska v1.6.4
Cover : Yes
Attachments : cover.jpg / small_cover.jpg

Video
ID : 1
Format : AVC
Format/Info : Advanced Video Codec
Format profile : [email protected]
Format settings : CABAC / 4 Ref Frames
Format settings, CABAC : Yes
Format settings, Reference : 4 frames
Codec ID : V_MPEG4/ISO/AVC
Duration : 1 h 36 min
Bit rate mode : Constant
Bit rate : 5 092 kb/s
Nominal bit rate : 6 000 kb/s
Width : 1 248 pixels
Height : 520 pixels
Display aspect ratio : 2.40:1
Frame rate mode : Constant
Frame rate : 23.976 (24000/1001) FPS
Color space : YUV
Chroma subsampling : 4:2:0
Bit depth : 8 bits
Scan type : Progressive
Bits/(Pixel*Frame) : 0.327
Stream size : 3.45 GiB (77%)
Language : English
Default : Yes
Forced : No
Color range : Limited
Color primaries : BT.709
Transfer characteristics : BT.709
Matrix coefficients : BT.709

Audio #1
ID : 2
Format : AC-3
Format/Info : Audio Coding 3
Commercial name : Dolby Digital
Codec ID : A_AC3
Duration : 1 h 36 min
Bit rate mode : Constant
Bit rate : 448 kb/s
Channel(s) : 6 channels
Channel layout : L R C LFE Ls Rs
Sampling rate : 48.0 kHz
Frame rate : 31.250 FPS (1536 SPF)
Compression mode : Lossy
Stream size : 310 MiB (7%)
Title : MVO_[Jaskier]
Language : Russian
Service kind : Complete Main
Default : Yes
Forced : Yes

Audio #2
ID : 3
Format : AC-3
Format/Info : Audio Coding 3
Commercial name : Dolby Digital
Codec ID : A_AC3
Duration : 1 h 36 min
Bit rate mode : Constant
Bit rate : 448 kb/s
Channel(s) : 6 channels
Channel layout : L R C LFE Ls Rs
Sampling rate : 48.0 kHz
Frame rate : 31.250 FPS (1536 SPF)
Compression mode : Lossy
Stream size : 310 MiB (7%)
Title : AVO_[М. Яроцкий]
Language : Russian
Service kind : Complete Main
Default : No
Forced : No

Audio #3
ID : 4
Format : E-AC-3
Format/Info : Enhanced AC-3
Commercial name : Dolby Digital Plus
Codec ID : A_EAC3
Duration : 1 h 36 min
Bit rate mode : Constant
Bit rate : 640 kb/s
Channel(s) : 6 channels
Channel layout : L R C LFE Ls Rs
Sampling rate : 48.0 kHz
Frame rate : 31.250 FPS (1536 SPF)
Compression mode : Lossy
Stream size : 443 MiB (10%)
Title : Original
Language : English
Service kind : Complete Main
Default : No
Forced : No

Text #1
ID : 5
Format : UTF-8
Codec ID : S_TEXT/UTF8
Codec ID/Info : UTF-8 Plain Text
Duration : 1 h 27 min
Bit rate : 46 b/s
Count of elements : 1173
Stream size : 30.0 KiB (0%)
Title : Full
Language : English
Default : No
Forced : No

Text #2
ID : 6
Format : UTF-8
Codec ID : S_TEXT/UTF8
Codec ID/Info : UTF-8 Plain Text
Duration : 1 h 35 min
Bit rate : 49 b/s
Count of elements : 1380
Stream size : 35.0 KiB (0%)
Title : SDH
Language : English
Default : No
Forced : No

Text #3
ID : 7
Format : UTF-8
Codec ID : S_TEXT/UTF8
Codec ID/Info : UTF-8 Plain Text
Duration : 1 h 30 min
Bit rate : 37 b/s
Count of elements : 944
Stream size : 24.9 KiB (0%)
Title : Full
Language : French
Default : No
Forced : No

Menu
00:00:00.000 : en:Глава 01
00:12:30.000 : en:Глава 02
00:25:00.000 : en:Глава 03
00:37:30.000 : en:Глава 04
00:50:00.000 : en:Глава 05
01:02:30.000 : en:Глава 06
01:15:00.000 : en:Глава 07
01:27:30.000 : en:Глава 08

Другие фильмы
У данной публикации пока нет комментариев.
Будь первым, оставь своё мнение в комментариях!
Информация
Посетители, находящиеся в группе Гости, не могут оставлять комментарии к данной публикации.
Самый популярный релиз недели
BDRip 1080p 9.87 Gb ...

Кино копилка
...
Какую тему вы используете?

Реклама
Последние комментарии
...

Desol

Вчера, 15:18

...

ArchieBlake

Вчера, 07:46

...

павел

Вчера, 05:13

...

dembell56

1 декабря 2022 21:44

...

Desol

29 ноября 2022 00:09

Реклама