+6

Шепот / Whisper (2007) BDRip-AVC от DoMiNo & селезень | D

Информация о фильме
Название: Шепот
Оригинальное название: Whisper
Год выхода: 2007
Жанр: Ужасы, триллер, драма, криминал
Режиссер: Стюарт Хендлер
В ролях: Джош Холлоуэй, Сара Уэйн Кэллис, Джоэл Эдгертон, Джон Капелос, Дуле Хилл, Майкл Рукер, Дженнифер Ширли, Блэйк Вудрафф, Джулиан Кристофер, Терил Ротери, Род Стэннерт, Роман Содерманс, Тревор Вудрафф, Тара Уилсон (I), Брэд Сивон, Клер Райли, Эйдан Уильямсон, Рекха Шарма, Кори Монтейт, Брэнди Хейдрик, Кевин МакКензи, Кайнан Виб, Марк МакКончи, Шеннон Хэнд, Элизабет Бауэн, Эрика-Шэй Гэйр, Коннор Кристофер Левинс, Меган МакКиннон, Роберт Мусники

О фильме:
Всё, что хотел Макс Трумонт — это начать всё сначала вместе со своей невестой Роксанной. Но это оказывается не так-то просто для человека, имеющего судимость за непредумышленное убийство. Последний шанс Макса — выполнить задание неизвестного заказчика, объединившись при этом с двумя подозрительными типами. Цель — похищение сына одной из самых состоятельных женщин штата. Макс даже и не мог представить, какими окажутся последствия. Вскоре выясняется, что его «невинная жертва», как и знаменитый персонаж «Омена» Дэмиан, — это ребёнок, владеющий чёрной магией…

Страна: США, Канада
Студия: Universal Pictures, Canadian Film or Video Production Tax Credit (CPTC), Gold Circle Films
Продолжительность: 01:34:44
Перевод: Дублированный
Субтитры: Английские

Файл
Формат: Matroska
Качество: BDRip-AVC
Видео: 1024x576 at 23.976 fps, [email protected], ~2850 kbps
Аудио: AC3, 6 ch, ~448 kbps - | Русский | Шепот / Whisper (2007) BDRip-AVC от DoMiNo & селезень | D
Формат субтитров: softsub (SRT)

Шепот / Whisper (2007) BDRip-AVC от DoMiNo & селезень | D

Авторизуйтесь для получения доступа к скачиванию

Нет аккаунта? Регистрация открыта и займёт меньше минуты

Вход Регистрация

x264 [info]: frame I:1097 Avg QP:14.29 size: 84371
x264 [info]: frame P:29045 Avg QP:16.67 size: 30715
x264 [info]: frame B:106130 Avg QP:18.91 size: 9799
x264 [info]: consecutive B-frames: 2,7% 3,9% 5,5% 15,6% 12,1% 43,2% 4,7% 6,9% 2,0% 1,8% 0,6% 0,9% 0,1%

General
Unique ID : 159539696528176303077905675093519259519 (0×78063A56C01D045D080BEAC7FF96577 °F)
Complete name : D:Whisper.2007.BDRip.x264.seleZen.mkv
Format : Matroska
Format version : Version 4
File size : 2.18 GiB
Duration : 1 h 34 min
Overall bit rate : 3 300 kb/s
Movie name : Whisper.2007.BDRip.x264.seleZen
Encoded date : UTC 18.09.2022 07:49:45
Writing application : mkvmerge v70.0.0 ('Caught A Lite Sneeze') 64-bit
Writing library : libebml v1.4.2 + libmatroska v1.6.4
Cover : Yes
Attachments : cover.jpg / small_cover.jpg

Video
ID : 1
Format : AVC
Format/Info : Advanced Video Codec
Format profile : [email protected]
Format settings : CABAC / 14 Ref Frames
Format settings, CABAC : Yes
Format settings, Reference : 14 frames
Codec ID : V_MPEG4/ISO/AVC
Duration : 1 h 34 min
Bit rate : 2 850 kb/s
Width : 1 024 pixels
Height : 576 pixels
Display aspect ratio : 16:9
Frame rate mode : Constant
Frame rate : 23.976 (24000/1001) FPS
Color space : YUV
Chroma subsampling : 4:2:0
Bit depth : 8 bits
Scan type : Progressive
Bits/(Pixel*Frame) : 0.202
Stream size : 1.89 GiB (86%)
Title : -=DoMiNo=-
Writing library : x264 core 164 by -=DoMiNo=-
Encoding settings : cabac=1 / ref=14 / deblock=1:-3:-2 / analyse=0×3:0×133 / me=umh / subme=10 / psy=1 / psy_rd=1.20:0.15 / mixed_ref=1 / me_range=32 / chroma_me=1 / trellis=2 / 8×8dct=1 / cqm=0 / deadzone=21,11 / fast_pskip=0 / chroma_qp_offset=-3 / threads=18 / lookahead_threads=4 / sliced_threads=0 / nr=0 / decimate=0 / interlaced=0 / bluray_compat=0 / constrained_intra=0 / bframes=12 / b_pyramid=2 / b_adapt=2 / b_bias=0 / direct=3 / weightb=1 / open_gop=0 / weightp=2 / keyint=250 / keyint_min=23 / scenecut=40 / intra_refresh=0 / rc_lookahead=60 / rc=2pass / mbtree=0 / bitrate=2850 / ratetol=1.0 / qcomp=0.70 / qpmin=0 / qpmax=69 / qpstep=4 / cplxblur=20.0 / qblur=0.5 / vbv_maxrate=50000 / vbv_bufsize=62500 / nal_hrd=none / filler=0 / ip_ratio=1.40 / pb_ratio=1.30 / aq=3:0.80
Language : English
Default : Yes
Forced : No

Audio
ID : 2
Format : AC-3
Format/Info : Audio Coding 3
Commercial name : Dolby Digital
Codec ID : A_AC3
Duration : 1 h 34 min
Bit rate mode : Constant
Bit rate : 448 kb/s
Channel (s) : 6 channels
Channel layout : L R C LFE Ls Rs
Sampling rate : 48.0 kHz
Frame rate : 31.250 FPS (1536 SPF)
Compression mode : Lossy
Stream size : 304 MiB (14%)
Title : DUB
Language : Russian
Service kind : Complete Main
Default : Yes
Forced : No

Text
ID : 3
Format : UTF-8
Codec ID : S_TEXT/UTF8
Codec ID/Info : UTF-8 Plain Text
Duration : 1 h 24 min
Bit rate : 39 b/s
Count of elements : 835
Stream size : 24.4 KiB (0%)
Language : English
Default : No
Forced : No

Menu
00:00:00.000 : en:Глава 01
00:12:30.000 : en:Глава 02
00:25:00.000 : en:Глава 03
00:37:30.000 : en:Глава 04
00:50:00.000 : en:Глава 05
01:02:30.000 : en:Глава 06
01:15:00.000 : en:Глава 07
01:27:30.000 : en:Глава 08

Другие фильмы
У данной публикации пока нет комментариев.
Будь первым, оставь своё мнение в комментариях!
Информация
Посетители, находящиеся в группе Гости, не могут оставлять комментарии к данной публикации.
Самый популярный релиз недели
BDRip 1080p 9.87 Gb ...

Кино копилка
...
Какую тему вы используете?

Реклама
Последние комментарии
...

Desol

Вчера, 15:18

...

ArchieBlake

Вчера, 07:46

...

павел

Вчера, 05:13

...

dembell56

1 декабря 2022 21:44

...

Desol

29 ноября 2022 00:09

Реклама