+6

Тор: Любовь и гром / Thor: Love and Thunder (2022) WEB-DL 720p от DoMiNo & селезень | D | IMAX

Информация о фильме
Название: Тор: Любовь и гром
Оригинальное название: Thor: Love and Thunder
Год выхода: 2022
Жанр: фантастика, фэнтези, боевик, мелодрама, комедия, приключения
Режиссер: Тайка Вайтити
В ролях: Крис Хемсворт, Натали Портман, Крис Прэтт, Тайка Вайтити, Сэм Нилл, Брэдли Купер, Мелисса Маккарти, Кристиан Бэйл, Карен Гиллан, Мэтт Дэймон

О фильме:
Джейн Фостер берет на себя обязанности Бога-громовержца и становится обладательницей молота Мьёльнира.

Страна: Австралия, США
Студия: Fox Studios Australia, Marvel Studios Inc., Walt Disney Pictures
Продолжительность: 01:58:44
Перевод: Дублированный | Лицензия
Субтитры: Русские (Forced, 2 x Full), английские

Файл
Формат: Matroska
Качество: WEB-DL 720p | IMAX
Видео: 1280×720 at 23.976 fps, [email protected], ~3356 kbps
Аудио 1: AC3, 6 ch, ~448 kbps — | Русский | Тор: Любовь и гром / Thor: Love and Thunder (2022) WEB-DL 720p от DoMiNo & селезень | D | IMAX
Аудио 2: E-AC-3 JOC, 6 ch, ~768 kbps — | Английский |
Формат субтитров: softsub (SRT)

Тор: Любовь и гром / Thor: Love and Thunder (2022) WEB-DL 720p от DoMiNo & селезень | D | IMAX

Авторизуйтесь для получения доступа к скачиванию

Нет аккаунта? Регистрация открыта и займёт меньше минуты

Вход Регистрация

General
Unique ID : 194032781219703601817854160171741070446 (0×91F95AB6F7EA07979AF0D2B444ADC46E)
Complete name : D:Thor.Love.and.Thunder.2022.IMAX.DUB.WEB-DL.720p.x264.seleZen.mkv
Format : Matroska
Format version : Version 4
File size : 3.79 GiB
Duration : 1 h 58 min
Overall bit rate mode : Variable
Overall bit rate : 4 575 kb/s
Movie name : Thor.Love.and.Thunder.2022.IMAX.DUB.WEB-DL.720p.x264.seleZen
Encoded date : UTC 24.09.2022 07:26:15
Writing application : mkvmerge v70.0.0 ('Caught A Lite Sneeze') 64-bit
Writing library : libebml v1.4.2 + libmatroska v1.6.4
Cover : Yes
Attachments : cover.jpg / small_cover.jpg

Video
ID : 1
Format : AVC
Format/Info : Advanced Video Codec
Format profile : [email protected]
Format settings : CABAC / 4 Ref Frames
Format settings, CABAC : Yes
Format settings, Reference : 4 frames
Codec ID : V_MPEG4/ISO/AVC
Duration : 1 h 58 min
Bit rate mode : Variable
Bit rate : 3 356 kb/s
Maximum bit rate : 6 375 kb/s
Width : 1 280 pixels
Height : 720 pixels
Display aspect ratio : 16:9
Frame rate mode : Constant
Frame rate : 23.976 (24000/1001) FPS
Color space : YUV
Chroma subsampling : 4:2:0
Bit depth : 8 bits
Scan type : Progressive
Bits/(Pixel*Frame) : 0.152
Stream size : 2.78 GiB (73%)
Language : English
Default : Yes
Forced : No
Color range : Limited
Color primaries : BT.709
Transfer characteristics : BT.709
Matrix coefficients : BT.709

Audio #1
ID : 2
Format : AC-3
Format/Info : Audio Coding 3
Commercial name : Dolby Digital
Codec ID : A_AC3
Duration : 1 h 58 min
Bit rate mode : Constant
Bit rate : 448 kb/s
Channel (s) : 6 channels
Channel layout : L R C LFE Ls Rs
Sampling rate : 48.0 kHz
Frame rate : 31.250 FPS (1536 SPF)
Compression mode : Lossy
Stream size : 380 MiB (10%)
Title : Dub
Language : Russian
Service kind : Complete Main
Default : Yes
Forced : Yes

Audio #2
ID : 3
Format : E-AC-3 JOC
Format/Info : Enhanced AC-3 with Joint Object Coding
Commercial name : Dolby Digital Plus with Dolby Atmos
Codec ID : A_EAC3
Duration : 1 h 58 min
Bit rate mode : Constant
Bit rate : 768 kb/s
Channel (s) : 6 channels
Channel layout : L R C LFE Ls Rs
Sampling rate : 48.0 kHz
Frame rate : 31.250 FPS (1536 SPF)
Compression mode : Lossy
Stream size : 652 MiB (17%)
Title : Original
Language : English
Service kind : Complete Main
Default : No
Forced : No
Complexity index : 16
Number of dynamic objects : 15
Bed channel count : 1 channel
Bed channel configuration : LFE

Text #1
ID : 4
Format : UTF-8
Codec ID : S_TEXT/UTF8
Codec ID/Info : UTF-8 Plain Text
Duration : 1 h 43 min
Bit rate : 1 b/s
Count of elements : 18
Stream size : 787 Bytes (0%)
Title : Forced
Language : Russian
Default : Yes
Forced : No

Text #2
ID : 5
Format : UTF-8
Codec ID : S_TEXT/UTF8
Codec ID/Info : UTF-8 Plain Text
Duration : 1 h 57 min
Bit rate : 82 b/s
Count of elements : 1616
Stream size : 71.5 KiB (0%)
Title : Full [license]
Language : Russian
Default : No
Forced : No

Text #3
ID : 6
Format : UTF-8
Codec ID : S_TEXT/UTF8
Codec ID/Info : UTF-8 Plain Text
Duration : 1 h 57 min
Bit rate : 94 b/s
Count of elements : 1615
Stream size : 81.6 KiB (0%)
Title : Full [Cool Story Blog]
Language : Russian
Default : No
Forced : No

Text #4
ID : 7
Format : UTF-8
Codec ID : S_TEXT/UTF8
Codec ID/Info : UTF-8 Plain Text
Duration : 1 h 57 min
Bit rate : 56 b/s
Count of elements : 1800
Stream size : 48.8 KiB (0%)
Title : Full
Language : English
Default : No
Forced : No

Text #5
ID : 8
Format : UTF-8
Codec ID : S_TEXT/UTF8
Codec ID/Info : UTF-8 Plain Text
Duration : 1 h 58 min
Bit rate : 70 b/s
Count of elements : 2281
Stream size : 61.0 KiB (0%)
Title : SDH
Language : English
Default : No
Forced : No

Menu
00:00:00.000 : en:Chapter 01
00:06:45.155 : en:Chapter 02
00:10:11.319 : en:Chapter 03
00:14:23.780 : en:Chapter 04
00:18:13.426 : en:Chapter 05
00:20:59.508 : en:Chapter 06
00:21:47.806 : en:Chapter 07
00:27:00.994 : en:Chapter 08
00:28:16.194 : en:Chapter 09
00:29:52.249 : en:Chapter 10
00:31:24.508 : en:Chapter 11
00:35:15.113 : en:Chapter 12
00:38:40.443 : en:Chapter 13
00:45:37.443 : en:Chapter 14
00:53:04.223 : en:Chapter 15
01:06:19.392 : en:Chapter 16
01:14:16.911 : en:Chapter 17
01:24:35.821 : en:Chapter 18
01:28:31.181 : en:Chapter 19
01:30:19.998 : en:Chapter 20
01:34:17.652 : en:Chapter 21
01:38:12.678 : en:Chapter 22
01:44:45.529 : en:Chapter 23
01:48:17.616 : en:Chapter 24
01:50:03.430 : en:Chapter 25
01:51:14.710 : en:Chapter 26

Другие фильмы
У данной публикации пока нет комментариев.
Будь первым, оставь своё мнение в комментариях!
Информация
Посетители, находящиеся в группе Гости, не могут оставлять комментарии к данной публикации.
Самый популярный релиз недели
BDRip 1080p 9.87 Gb ...

Кино копилка
...
Какую тему вы используете?

Реклама
Последние комментарии
...

Chilly

Сегодня, 12:17

...

Desol

Вчера, 15:18

...

ArchieBlake

Вчера, 07:46

...

павел

Вчера, 05:13

...

dembell56

1 декабря 2022 21:44

Реклама