+5

Вторжение / An Intrusion (2021) WEB-DLRip-AVC от DoMiNo & селезень | P

Информация о фильме
Название: Вторжение
Оригинальное название: An Intrusion
Год выхода: 2021
Жанр: триллер, драма, криминал
Режиссер: Мэтт Эскандари
В ролях: Дастин Принц, Кейр Гилкрист, Билли Бойд, Скаут Тэйлор-Комптон, Сэм Логан Халеги, Эрика Хоувленд, Майкл Эмери, Анджелина Даниэль Кама, Кайла Келли, Хайме Севальос

О фильме:
На обычную американскую семью напали неизвестные. Пока незваные гости разрушают их дом, глава семейства Сэм начинает подозревать, что атака как-то связана с интрижкой, которую он скрывает от жены.

Выпущено: США / SLK Media Group, Diamond Dead Media, Laugh Cry Productions
Продолжительность: 01:35:05
Перевод: Профессиональный (многоголосый, закадровый) | КиноПоиск HD

Файл
Формат: Matroska
Качество: WEB-DLRip-AVC
Видео: 1024×478 at 25.000 fps, [email protected], ~1447 kbps
Аудио: AC3, 2 ch, ~192 kbps — | Русский | Вторжение / An Intrusion (2021) WEB-DLRip-AVC от DoMiNo & селезень | P
Субтитры: Russian (Forced — хардсаб (на надписи))

Вторжение / An Intrusion (2021) WEB-DLRip-AVC от DoMiNo & селезень | P

Авторизуйтесь для получения доступа к скачиванию

Нет аккаунта? Регистрация открыта и займёт меньше минуты

Вход Регистрация

x264 [info]: frame I:1126 Avg QP:13.25 size: 38185
x264 [info]: frame P:35668 Avg QP:14.65 size: 14649
x264 [info]: frame B:105843 Avg QP:17.82 size: 4409
x264 [info]: consecutive B-frames: 2,5% 3,5% 8,8% 53,4% 9,8% 13,1% 3,2% 4,1% 0,7% 0,4% 0,6%

General
Unique ID : 21588434284694557590016398083601601643 (0×103DC7FCFE7A6D913568B9B5DCAA146B)
Complete name : H:An.Intrusion.2021.WEB-DLRip.x264.seleZen.mkv
Format : Matroska
Format version : Version 4
File size : 1.09 GiB
Duration : 1 h 35 min
Overall bit rate : 1 641 kb/s
Movie name : An.Intrusion.2021.WEB-DLRip.x264.seleZen
Encoded date : UTC 24.09.2022 11:41:05
Writing application : mkvmerge v70.0.0 ('Caught A Lite Sneeze') 64-bit
Writing library : libebml v1.4.2 + libmatroska v1.6.4
Cover : Yes
Attachments : cover.jpg / small_cover.jpg

Video
ID : 1
Format : AVC
Format/Info : Advanced Video Codec
Format profile : [email protected]
Format settings : CABAC / 14 Ref Frames
Format settings, CABAC : Yes
Format settings, Reference : 14 frames
Codec ID : V_MPEG4/ISO/AVC
Duration : 1 h 35 min
Bit rate : 1 447 kb/s
Width : 1 024 pixels
Height : 478 pixels
Display aspect ratio : 2.142
Frame rate mode : Constant
Frame rate : 25.000 FPS
Color space : YUV
Chroma subsampling : 4:2:0
Bit depth : 8 bits
Scan type : Progressive
Bits/(Pixel*Frame) : 0.118
Stream size : 984 MiB (88%)
Title : -=DoMiNo=-
Writing library : x264 core 164 by -=DoMiNo=-
Encoding settings : cabac=1 / ref=14 / deblock=1:-3:-2 / analyse=0×3:0×133 / me=umh / subme=10 / psy=1 / psy_rd=1.03:0.15 / mixed_ref=1 / me_range=32 / chroma_me=1 / trellis=2 / 8×8dct=1 / cqm=0 / deadzone=21,11 / fast_pskip=1 / chroma_qp_offset=-3 / threads=16 / lookahead_threads=3 / sliced_threads=0 / nr=0 / decimate=1 / interlaced=0 / bluray_compat=0 / constrained_intra=0 / bframes=10 / b_pyramid=2 / b_adapt=2 / b_bias=0 / direct=1 / weightb=1 / open_gop=0 / weightp=2 / keyint=250 / keyint_min=25 / scenecut=40 / intra_refresh=0 / rc_lookahead=60 / rc=crf / mbtree=0 / crf=19.0 / qcomp=0.60 / qpmin=0 / qpmax=69 / qpstep=4 / vbv_maxrate=50000 / vbv_bufsize=62500 / crf_max=0.0 / nal_hrd=none / filler=0 / ip_ratio=1.40 / pb_ratio=1.30 / aq=3:0.80
Language : English
Default : Yes
Forced : No

Audio
ID : 2
Format : AC-3
Format/Info : Audio Coding 3
Commercial name : Dolby Digital
Codec ID : A_AC3
Duration : 1 h 35 min
Bit rate mode : Constant
Bit rate : 192 kb/s
Channel (s) : 2 channels
Channel layout : L R
Sampling rate : 48.0 kHz
Frame rate : 31.250 FPS (1536 SPF)
Compression mode : Lossy
Stream size : 131 MiB (12%)
Title : MVO
Language : Russian
Service kind : Complete Main
Default : Yes
Forced : Yes

Menu
00:00:00.000 : en:Глава 01
00:07:30.000 : en:Глава 02
00:15:00.000 : en:Глава 03
00:22:30.000 : en:Глава 04
00:30:00.000 : en:Глава 05
00:37:30.000 : en:Глава 06
00:45:00.000 : en:Глава 07
00:52:30.000 : en:Глава 08
01:00:00.000 : en:Глава 09
01:07:30.000 : en:Глава 10
01:15:00.000 : en:Глава 11
01:22:30.000 : en:Глава 12
01:30:00.000 : en:Глава 13

Другие фильмы
У данной публикации пока нет комментариев.
Будь первым, оставь своё мнение в комментариях!
Информация
Посетители, находящиеся в группе Гости, не могут оставлять комментарии к данной публикации.
Самый популярный релиз недели
BDRip 1080p 9.87 Gb ...

Кино копилка
...
Какую тему вы используете?

Реклама
Последние комментарии
...

Desol

Вчера, 15:18

...

ArchieBlake

Вчера, 07:46

...

павел

Вчера, 05:13

...

dembell56

1 декабря 2022 21:44

...

Desol

29 ноября 2022 00:09

Реклама