0

Angry Birds 2 в кино / The Angry Birds Movie 2 (2019) UHD BDRemux 2160p от селезень | 4K | HDR | Дублированный

Информация о фильме
Название: Angry Birds 2 в кино
Оригинальное название: The Angry Birds Movie 2
Год выхода: 2019
Жанр: Мультфильм, комедия, приключения, семейный, полнометражный
Режиссер: Туроп Ван Орман, Джон Райс
В ролях: Аквафина, Дав Кэмерон, Билл Хэйдер, Дэнни Макбрайд, Питер Динклэйдж, Тиффани Хэддиш, Майя Рудольф, Джейсон Судейкис, Стерлинг К. Браун, Эухенио Дербес, Джош Гэд, Лесли Джонс, Рэйчел Блум

Angry Birds 2 в кино / The Angry Birds Movie 2 (2019) UHD BDRemux 2160p от селезень | 4K | HDR | Дублированный

О фильме: Птицы узнали о существовании голодных зелёных свиней, после чего началась священная война, которая длилась многие годы. Однако теперь на горизонте появился новый враг - Зета, обитательница третьего, замёрзшего острова. Она считает, что все должны почувствовать на себе силу холода, и начинает атаку на дальних родственников, обитающих в тёплых краях. Теперь птицы и свиньи должны объединиться, чтобы остановить заморозки.

Страна: США, Финляндия
Студия: Rovio Animation, Sony Pictures Animation
Продолжительность: 01:36:47
Перевод: Дублированный | iTunes

Качество: BDRemux 2160p
Видео: 3840x2160 at 23.976 fps, MPEG-H HEVC HDR Video, 49700 kbps avg
Аудио #01: 48 kHz, AC3, 5.1, 384 Kbps | iTunes | RUS |
Аудио #02: 48 kHz, AC3, 2.0, 160 Kbps | iTunes | UKR |
Аудио #03: 48 kHz, DTS-HD MA, 7.1, 5328 Kbps | Оригинал | ENG |
Субтитры: Русские (Forced, full), украинские (Full), английские

Авторизуйтесь для получения доступа к скачиванию

Нет аккаунта? Регистрация открыта и займёт меньше минуты

Вход Регистрация

General
Unique ID : 312212377447288037230190447703140638796 (0xEAE1EAAB1BBCCD31DCE0F19D56F4A04C)
Complete name : D:Video111The.Angry.Birds.Movie.2.2019.BDREMUX.2160p.HDR.seleZen.mkv
Format : Matroska
Format version : Version 4
File size : 37.6 GiB
Duration : 1 h 36 min
Overall bit rate mode : Variable
Overall bit rate : 55.6 Mb/s
Movie name : The Angry Birds Movie 2 2019 from селезень
Encoded date : UTC 2019-11-13 07:47:57
Writing application : mkvmerge v39.0.0 ('In The Waiting Line') 64-bit
Writing library : libebml v1.3.9 + libmatroska v1.5.2

Video
ID : 1
Format : HEVC
Format/Info : High Efficiency Video Coding
Format profile : Main [email protected]@High
HDR format : SMPTE ST 2086, HDR10 compatible
Codec ID : V_MPEGH/ISO/HEVC
Duration : 1 h 36 min
Bit rate : 49.7 Mb/s
Width : 3 840 pixels
Height : 2 160 pixels
Display aspect ratio : 16:9
Frame rate mode : Constant
Frame rate : 23.976 (24000/1001) FPS
Color space : YUV
Chroma subsampling : 4:2:0 (Type 2)
Bit depth : 10 bits
Bits/(Pixel*Frame) : 0.250
Stream size : 33.6 GiB (89%)
Language : English
Default : Yes
Forced : No
Color range : Limited
Color primaries : BT.2020
Transfer characteristics : PQ
Matrix coefficients : BT.2020 non-constant
Mastering display color pri : Display P3
Mastering display luminance : min: 0.0050 cd/m2, max: 4000 cd/m2
Maximum Content Light Level : 1001 cd/m2
Maximum Frame-Average Light : 640 cd/m2

Audio #1
ID : 2
Format : AC-3
Format/Info : Audio Coding 3
Commercial name : Dolby Digital
Codec ID : A_AC3
Duration : 1 h 36 min
Bit rate mode : Constant
Bit rate : 384 kb/s
Channel(s) : 6 channels
Channel layout : L R C LFE Ls Rs
Sampling rate : 48.0 kHz
Frame rate : 31.250 FPS (1536 SPF)
Bit depth : 16 bits
Compression mode : Lossy
Stream size : 266 MiB (1%)
Title : iTunes
Language : Russian
Service kind : Complete Main
Default : Yes
Forced : Yes

Audio #2
ID : 3
Format : AC-3
Format/Info : Audio Coding 3
Commercial name : Dolby Digital
Codec ID : A_AC3
Duration : 1 h 36 min
Bit rate mode : Constant
Bit rate : 160 kb/s
Channel(s) : 2 channels
Channel layout : L R
Sampling rate : 48.0 kHz
Frame rate : 31.250 FPS (1536 SPF)
Bit depth : 16 bits
Compression mode : Lossy
Stream size : 111 MiB (0%)
Title : iTunes
Language : Ukrainian
Service kind : Complete Main
Default : No
Forced : No

Audio #3
ID : 4
Format : DTS XLL
Format/Info : Digital Theater Systems
Commercial name : DTS-HD Master Audio
Codec ID : A_DTS
Duration : 1 h 36 min
Bit rate mode : Variable
Bit rate : 5 328 kb/s
Channel(s) : 8 channels
Channel layout : C L R LFE Lb Rb Lss Rss
Sampling rate : 48.0 kHz
Frame rate : 93.750 FPS (512 SPF)
Bit depth : 24 bits
Compression mode : Lossless
Stream size : 3.60 GiB (10%)
Title : Original
Language : English
Default : No
Forced : No

Text #1
ID : 5
Format : UTF-8
Codec ID : S_TEXT/UTF8
Codec ID/Info : UTF-8 Plain Text
Duration : 1 h 36 min
Bit rate : 0 b/s
Count of elements : 16
Stream size : 561 Bytes (0%)
Title : Forced
Language : Russian
Default : Yes
Forced : Yes

Text #2
ID : 6
Format : UTF-8
Codec ID : S_TEXT/UTF8
Codec ID/Info : UTF-8 Plain Text
Duration : 1 h 36 min
Bit rate : 88 b/s
Count of elements : 1374
Stream size : 62.4 KiB (0%)
Title : Full
Language : Russian
Default : No
Forced : No

Text #3
ID : 7
Format : UTF-8
Codec ID : S_TEXT/UTF8
Codec ID/Info : UTF-8 Plain Text
Duration : 1 h 36 min
Bit rate : 86 b/s
Count of elements : 1373
Stream size : 61.1 KiB (0%)
Title : Full
Language : Ukrainian
Default : No
Forced : No

Text #4
ID : 8
Format : UTF-8
Codec ID : S_TEXT/UTF8
Codec ID/Info : UTF-8 Plain Text
Duration : 1 h 27 min
Bit rate : 67 b/s
Count of elements : 1322
Stream size : 43.4 KiB (0%)
Title : Full
Language : English
Default : No
Forced : No

Text #5
ID : 9
Format : UTF-8
Codec ID : S_TEXT/UTF8
Codec ID/Info : UTF-8 Plain Text
Duration : 1 h 34 min
Bit rate : 80 b/s
Count of elements : 1759
Stream size : 56.0 KiB (0%)
Title : SDH
Language : English
Default : No
Forced : No

Menu
00:00:00.000 : en:Глава 01
00:05:19.486 : en:Глава 02
00:12:05.892 : en:Глава 03
00:18:52.673 : en:Глава 04
00:24:11.867 : en:Глава 05
00:28:46.683 : en:Глава 06
00:34:48.461 : en:Глава 07
00:40:10.158 : en:Глава 08
00:47:10.828 : en:Глава 09
00:52:56.382 : en:Глава 10
00:58:04.690 : en:Глава 11
01:04:36.122 : en:Глава 12
01:09:55.650 : en:Глава 13
01:15:40.286 : en:Глава 14
01:21:11.116 : en:Глава 15
01:26:26.848 : en:Глава 16

Другие фильмы
У данной публикации пока нет комментариев.
Будь первым, оставь своё мнение в комментариях!
Информация
Посетители, находящиеся в группе Гости, не могут оставлять комментарии к данной публикации.
Самый популярный релиз недели
HDR BDRemux 2160p 47.22 Gb ...

Кино копилка
...
Какую тему вы используете?

Реклама
Последние комментарии
...

Desol

Вчера, 21:49

...

dembell56

Вчера, 21:20

...

Slovilka

24 сентября 2022 11:39

...

Robot

23 сентября 2022 21:31

...

Bhaar

23 сентября 2022 20:58