+14

Приключения Тедди / Teddybjørnens jul / Teddy's Christmas (2022) BDRip-AVC от DoMiNo & селезень | D

Информация о фильме
Название: Приключения Тедди
Оригинальное название: Teddybjørnens jul / Teddy's Christmas
Год выхода: 2022
Жанр: Приключения, семейный
Режиссер: Андреа Экербом
В ролях: Марте Клерк-Нильссен, Джон Ф. Брунгот, Вегард Странд Эйде, Лене Конгсвик Йохансен, Марианн Холе, Ян Гуннар Рэйсе, Кай Ремлов, Марианне Крогнесс, Надер Хадеми, Медина Икбал, Гунн Туве Гронсберг, Скотт Маурстад, Мортен Рудо, Ингрид Люккеслет Стромског

О фильме:
На рождественской ярмарке Марианна замечает ожившую игрушку — плюшевого медвежонка Тедди. Это то, о чем она мечтала всю жизнь! Однако медвежонка выигрывает другой: теперь Тедди и его новый лучший друг, ежик Болла, отправятся в новогоднее путешествие, полное приключений, чтобы вернуться к девочке.

Страна: Норвегия
Студия: Fantefilm
Продолжительность: 01:18:19
Перевод: Дублированный | CPI Films
Субтитры: Русские (полные)

Файл
Формат: Matroska
Качество: BDRip-AVC
Видео: 1024x576 at 24.000 fps, [email protected], ~2373 kbps
Аудио: AC3, 6 ch, ~448 kbps - | Русский | Приключения Тедди / Teddybjørnens jul / Teddy's Christmas (2022) BDRip-AVC от DoMiNo & селезень | D
Формат субтитров: softsub (SRT)

Приключения Тедди / Teddybjørnens jul / Teddy's Christmas (2022) BDRip-AVC от DoMiNo & селезень | D

Авторизуйтесь для получения доступа к скачиванию

Нет аккаунта? Регистрация открыта и займёт меньше минуты

Вход Регистрация

General
Unique ID : 17378675449690232233006128226475601090 (0xD1302DA593B07AD1C4C1B359F326CC2)
Complete name : I:Teddys.Christmas.2022.BDRip.x264.seleZen.mkv
Format : Matroska
Format version : Version 4
File size : 1.54 GiB
Duration : 1 h 18 min
Overall bit rate : 2 823 kb/s
Frame rate : 24.000 FPS
Movie name : Teddys.Christmas.2022.BDRip.x264.seleZen
Encoded date : 2023-11-05 09:28:40 UTC
Writing application : mkvmerge v80.0 ('Roundabout') 64-bit
Writing library : libebml v1.4.4 + libmatroska v1.7.1
Cover : Yes
Attachments : cover.jpg / small_cover.jpg

Video
ID : 1
Format : AVC
Format/Info : Advanced Video Codec
Format profile : [email protected]
Format settings : CABAC / 12 Ref Frames
Format settings, CABAC : Yes
Format settings, Reference : 12 frames
Codec ID : V_MPEG4/ISO/AVC
Duration : 1 h 18 min
Bit rate : 2 373 kb/s
Width : 1 024 pixels
Height : 576 pixels
Display aspect ratio : 16:9
Frame rate mode : Constant
Frame rate : 24.000 FPS
Color space : YUV
Chroma subsampling : 4:2:0
Bit depth : 8 bits
Scan type : Progressive
Bits/(Pixel*Frame) : 0.168
Stream size : 1.30 GiB (84%)
Title : -=DoMiNo=-
Writing library : x264 core 164 r3156+57M dac90dd t_mod_New [(8 & 10)-bit@all X86_64]
Encoding settings : cabac=1 / ref=12 / deblock=1:-2:-2 / analyse=0x3:0x133 / me=umh / subme=10 / psy=1 / fade_compensate=0.00 / psy_rd=1.00:0.00 / mixed_ref=1 / me_range=32 / chroma_me=1 / trellis=2 / 8x8dct=1 / cqm=0 / deadzone=21,11 / fast_pskip=0 / chroma_qp_offset=-2 / threads=18 / lookahead_threads=4 / sliced_threads=0 / nr=0 / decimate=1 / interlaced=0 / bluray_compat=0 / constrained_intra=0 / fgo=0 / bframes=14 / b_pyramid=2 / b_adapt=2 / b_bias=0 / direct=3 / weightb=1 / open_gop=0 / weightp=2 / keyint=250 / keyint_min=24 / scenecut=40 / intra_refresh=0 / rc_lookahead=60 / rc=crf / mbtree=0 / crf=18.5000 / qcomp=0.60 / qpmin=0:0:0 / qpmax=69:69:69 / qpstep=4 / vbv_maxrate=50000 / vbv_bufsize=62500 / crf_max=0.0 / nal_hrd=none / filler=0 / ip_ratio=1.40 / pb_ratio=1.30 / aq=3:0.80 / aq-sensitivity=10.00 / aq-factor=1.00:1.00:1.00:1.00 / aq2=0 / aq3=0
Language : English
Default : Yes
Forced : No
Color range : Limited
Matrix coefficients : BT.709

Audio
ID : 2
Format : AC-3
Format/Info : Audio Coding 3
Commercial name : Dolby Digital
Codec ID : A_AC3
Duration : 1 h 18 min
Bit rate mode : Constant
Bit rate : 448 kb/s
Channel(s) : 6 channels
Channel layout : L R C LFE Ls Rs
Sampling rate : 48.0 kHz
Frame rate : 31.250 FPS (1536 SPF)
Compression mode : Lossy
Stream size : 251 MiB (16%)
Title : Дублированный CPI Films
Language : Russian
Service kind : Complete Main
Default : Yes
Forced : No

Text
ID : 3
Format : UTF-8
Codec ID : S_TEXT/UTF8
Codec ID/Info : UTF-8 Plain Text
Duration : 1 h 10 min
Bit rate : 96 b/s
Frame rate : 0.215 FPS
Count of elements : 911
Stream size : 50.0 KiB (0%)
Language : Russian
Default : No
Forced : No

Menu
00:00:00.000 : Глава 1
00:06:04.916 : Глава 2
00:12:05.208 : Глава 3
00:17:30.375 : Глава 4
00:21:15.750 : Глава 5
00:25:36.000 : Глава 6
00:30:17.041 : Глава 7
00:34:29.500 : Глава 8
00:40:15.833 : Глава 9
00:45:08.916 : Глава 10
00:50:27.333 : Глава 11
00:55:38.083 : Глава 12
00:59:20.375 : Глава 13
01:03:11.666 : Глава 14
01:06:48.750 : Глава 15
01:11:02.750 : Глава 16
01:18:17.708 : Глава 17

Другие фильмы
У данной публикации пока нет комментариев.
Будь первым, оставь своё мнение в комментариях!
Информация
Посетители, находящиеся в группе Гости, не могут оставлять комментарии к данной публикации.
Самый популярный релиз недели
Донаты
Мы в соц. сетях / RSS

Лучшие релизы месяца
Лучшие SD недели
Лучшие 720p недели
Лучшие 1080p недели
Лучшие 4K недели
Вы недавно смотрели
Реклама
Последние комментарии
...

Al1ksandr

21 июня 2024 21:02

...

Bonzo

14 июня 2024 14:52

...

rmzshka

13 июня 2024 17:48

...

rmzshka

13 июня 2024 12:24

...

LisNick

13 июня 2024 08:45

Реклама