+17

Всевидящее око / The Pale Blue Eye (2022) WEB-DL 1080p от DoMiNo & селезень | P, А

Информация о фильме
Название: Всевидящее око
Оригинальное название: The Pale Blue Eye
Год выхода: 2022
Жанр: детектив, триллер, ужасы
Режиссер: Скотт Купер
В ролях: Кристиан Бэйл, Гарри Меллинг, Фред Хехингер, Джиллиан Андерсон, Роберт Дювалл, Люси Бойнтон, Тоби Джонс, Шарлотта Генсбур, Тимоти Сполл, Чарли Тахэн

О фильме:
1830 год. Уставшего от жизни детектива нанимают для расследования убийства курсанта военной академии «Уэст-Пойнт». Попав в тупик из-за кодекса молчания кадетов, он вербует одного из них, Эдгара Аллана По, чтобы тот помог распутать дело.

Страна: США
Студия: Cross Creek Pictures, Grisbi Productions,Le, Streamline Global Group
Продолжительность: 02:10:08
Перевод 1: Профессиональный (многоголосый, закадровый) | Jaskier
Перевод 2: Профессиональный (многоголосый, закадровый) | LineFilm
Перевод 3: Авторский (одноголосый) | Дмитрий Есарев
Перевод 4: Профессиональный (многоголосый, закадровый) | TVShows
Субтитры: Русские (Forced, Full), английские (Full, SDH)
Внимание: присутствует ненормативная лексика!

Файл
Формат: Matroska
Качество: WEB-DL 1080p
Видео: 1920x1080 at 24.000 fps, [email protected], ~4740 kbps
Аудио 1: AC3, 6 ch, ~384 kbps - | Русский | Всевидящее око / The Pale Blue Eye (2022) WEB-DL 1080p от DoMiNo & селезень | P, А | Jaskier
Аудио 2: AC3, 6 ch, ~640 kbps - | Русский | | LineFilm
Аудио 3: AC3, 6 ch, ~384 kbps - | Русский | | Дмитрий Есарев
Аудио 4: AC3, 2 ch, ~192 kbps - | Русский | | TVShows
Аудио 5: E-AC3+Atmos, 6 ch, ~768 kbps - | Английский | | Original
Формат субтитров: softsub (SRT)

Всевидящее око / The Pale Blue Eye (2022) WEB-DL 1080p от DoMiNo & селезень | P, А

Авторизуйтесь для получения доступа к скачиванию

Нет аккаунта? Регистрация открыта и займёт меньше минуты

Вход Регистрация

General
Unique ID : 249828958650809905843287401757800141064 (0xBBF34EA78C15F5D8245BB392D46C1108)
Complete name : D:The.Pale.Blue.Eye.2022.WEB-DL.1080p.x264.seleZen.mkv
Format : Matroska
Format version : Version 4
File size : 6.46 GiB
Duration : 2 h 10 min
Overall bit rate mode : Variable
Overall bit rate : 7 112 kb/s
Movie name : The.Pale.Blue.Eye.2022.WEB-DL.1080p.x264.seleZen
Encoded date : UTC 14.01.2023 11:58:43
Writing application : mkvmerge v73.0.0 ('25 or 6 to 4') 64-bit
Writing library : libebml v1.4.4 + libmatroska v1.7.1
Cover : Yes
Attachments : cover.jpg / small_cover.jpg

Video
ID : 1
Format : AVC
Format/Info : Advanced Video Codec
Format profile : [email protected]
Format settings : CABAC / 3 Ref Frames
Format settings, CABAC : Yes
Format settings, Reference : 3 frames
Codec ID : V_MPEG4/ISO/AVC
Duration : 2 h 10 min
Bit rate mode : Variable
Bit rate : 4 740 kb/s
Nominal bit rate : 5 000 kb/s
Maximum bit rate : 7 500 kb/s
Width : 1 920 pixels
Height : 1 080 pixels
Display aspect ratio : 16:9
Frame rate mode : Constant
Frame rate : 24.000 FPS
Color space : YUV
Chroma subsampling : 4:2:0
Bit depth : 8 bits
Scan type : Progressive
Bits/(Pixel*Frame) : 0.095
Stream size : 4.31 GiB (67%)
Title : -=DoMiNo=-
Writing library : x264 core 148 r2727 7d026e8
Encoding settings : cabac=1 / ref=3 / deblock=1:0:0 / analyse=0×1:0×111 / me=umh / subme=10 / psy=1 / psy_rd=1.00:0.00 / mixed_ref=1 / me_range=24 / chroma_me=1 / trellis=2 / 8×8dct=0 / cqm=0 / deadzone=21,11 / fast_pskip=1 / chroma_qp_offset=-2 / threads=8 / lookahead_threads=1 / sliced_threads=0 / nr=0 / decimate=1 / interlaced=0 / bluray_compat=0 / stitchable=1 / constrained_intra=0 / bframes=2 / b_pyramid=0 / b_adapt=2 / b_bias=0 / direct=3 / weightb=1 / open_gop=0 / weightp=2 / keyint=48 / keyint_min=25 / scenecut=0 / intra_refresh=0 / rc_lookahead=48 / rc=2pass / mbtree=1 / bitrate=5000 / ratetol=1.0 / qcomp=0.50 / qpmin=6 / qpmax=51 / qpstep=4 / cplxblur=20.0 / qblur=0.5 / vbv_maxrate=7500 / vbv_bufsize=10000 / nal_hrd=vbr / filler=0 / ip_ratio=1.40 / aq=1:1.00
Language : English
Default : Yes
Forced : Yes

Audio #1
ID : 2
Format : AC-3
Format/Info : Audio Coding 3
Commercial name : Dolby Digital
Codec ID : A_AC3
Duration : 2 h 10 min
Bit rate mode : Constant
Bit rate : 384 kb/s
Channel (s) : 6 channels
Channel layout : L R C LFE Ls Rs
Sampling rate : 48.0 kHz
Frame rate : 31.250 FPS (1536 SPF)
Compression mode : Lossy
Stream size : 357 MiB (5%)
Title : MVO_[Jaskier]
Language : Russian
Service kind : Complete Main
Default : Yes
Forced : Yes

Audio #2
ID : 3
Format : AC-3
Format/Info : Audio Coding 3
Commercial name : Dolby Digital
Codec ID : A_AC3
Duration : 2 h 10 min
Bit rate mode : Constant
Bit rate : 640 kb/s
Channel (s) : 6 channels
Channel layout : L R C LFE Ls Rs
Sampling rate : 48.0 kHz
Frame rate : 31.250 FPS (1536 SPF)
Compression mode : Lossy
Stream size : 596 MiB (9%)
Title : MVO_[LineFilm]
Language : Russian
Service kind : Complete Main
Default : No
Forced : No

Audio #3
ID : 4
Format : AC-3
Format/Info : Audio Coding 3
Commercial name : Dolby Digital
Codec ID : A_AC3
Duration : 2 h 10 min
Bit rate mode : Constant
Bit rate : 384 kb/s
Channel (s) : 6 channels
Channel layout : L R C LFE Ls Rs
Sampling rate : 48.0 kHz
Frame rate : 31.250 FPS (1536 SPF)
Compression mode : Lossy
Stream size : 357 MiB (5%)
Title : AVO_[Д.Есарев]
Language : Russian
Service kind : Complete Main
Default : No
Forced : No

Audio #4
ID : 5
Format : AC-3
Format/Info : Audio Coding 3
Commercial name : Dolby Digital
Codec ID : A_AC3
Duration : 2 h 10 min
Bit rate mode : Constant
Bit rate : 192 kb/s
Channel (s) : 2 channels
Channel layout : L R
Sampling rate : 44.1 kHz
Frame rate : 28.711 FPS (1536 SPF)
Compression mode : Lossy
Delay relative to video : 26 ms
Stream size : 179 MiB (3%)
Title : MVO_[TVShows]
Language : Russian
Service kind : Complete Main
Default : No
Forced : No

Audio #5
ID : 6
Format : E-AC-3 JOC
Format/Info : Enhanced AC-3 with Joint Object Coding
Commercial name : Dolby Digital Plus with Dolby Atmos
Codec ID : A_EAC3
Duration : 2 h 10 min
Bit rate mode : Constant
Bit rate : 768 kb/s
Channel (s) : 6 channels
Channel layout : L R C LFE Ls Rs
Sampling rate : 48.0 kHz
Frame rate : 31.250 FPS (1536 SPF)
Compression mode : Lossy
Stream size : 715 MiB (11%)
Title : Original
Language : English
Service kind : Complete Main
Default : No
Forced : No
Complexity index : 16
Number of dynamic objects : 15
Bed channel count : 1 channel
Bed channel configuration : LFE

Text #1
ID : 7
Format : UTF-8
Codec ID : S_TEXT/UTF8
Codec ID/Info : UTF-8 Plain Text
Duration : 2 h 2 min
Bit rate : 0 b/s
Frame rate : 0.001 FPS
Count of elements : 9
Stream size : 594 Bytes (0%)
Title : Forced
Language : Russian
Default : Yes
Forced : Yes

Text #2
ID : 8
Format : UTF-8
Codec ID : S_TEXT/UTF8
Codec ID/Info : UTF-8 Plain Text
Duration : 2 h 2 min
Bit rate : 83 b/s
Frame rate : 0.182 FPS
Count of elements : 1336
Stream size : 74.4 KiB (0%)
Title : Full
Language : Russian
Default : No
Forced : No

Text #3
ID : 9
Format : UTF-8
Codec ID : S_TEXT/UTF8
Codec ID/Info : UTF-8 Plain Text
Duration : 1 h 58 min
Bit rate : 54 b/s
Frame rate : 0.194 FPS
Count of elements : 1380
Stream size : 47.1 KiB (0%)
Title : Full
Language : English
Default : No
Forced : No

Text #4
ID : 10
Format : UTF-8
Codec ID : S_TEXT/UTF8
Codec ID/Info : UTF-8 Plain Text
Duration : 2 h 2 min
Bit rate : 58 b/s
Frame rate : 0.212 FPS
Count of elements : 1557
Stream size : 52.3 KiB (0%)
Title : SDH
Language : English
Default : No
Forced : No

Menu
00:00:00.000 : en:Глава 01
00:11:40.000 : en:Глава 02
00:23:20.000 : en:Глава 03
00:35:00.000 : en:Глава 04
00:46:40.000 : en:Глава 05
00:58:20.000 : en:Глава 06
01:10:00.000 : en:Глава 07
01:21:40.000 : en:Глава 08
01:33:20.000 : en:Глава 09
01:45:00.000 : en:Глава 10
01:56:40.000 : en:Глава 11
02:08:20.000 : en:Глава 12

Другие фильмы
У данной публикации пока нет комментариев.
Будь первым, оставь своё мнение в комментариях!
Информация
Посетители, находящиеся в группе Гости, не могут оставлять комментарии к данной публикации.
Самый популярный релиз недели

Кино копилка
...
Какую тему вы используете?

Реклама
Последние комментарии
...

dembell56

6 февраля 2023 20:48

...

dembell56

6 февраля 2023 20:37

...

dembell56

3 февраля 2023 19:28

...

sanders2

2 февраля 2023 21:29

...

ivanfan1337

1 февраля 2023 12:49

Реклама