+24

Одни из нас / The Last of Us [01x01-03 из 09] (2023) WEB-DLRip-AVC от DoMiNo & селезень | D

Информация о фильме
Название: Одни из нас
Оригинальное название: The Last of Us
Год выхода: 2023
Жанр: ужасы, фантастика, боевик, драма
Режиссёр: Али Аббаси, Джереми Уэбб, Нил Дракманн
В ролях: Педро Паскаль, Белла Рэмси, Гэбриел Луна, Ник Офферман, Кон О’Нилл, Мерл Дэндридж, Джеффри Пирс, Анна Торв, Мюррэй Бартлетт, Марли Грэйс Бекер, Мелани Лински, Эшли Джонсон, Джанни Калькетти, Трой Бэйкер, Сторм Рейд

О фильме: «Одни из нас» — многосерийная экранизация культовой игры The Last of Us, адаптированная для экранов ее создателем Нилом Дракманном и продюсером Крэйгом Мэйзиным («Чернобыль»). История в сеттинге постапокалипсиса, вызванного глобальной пандемией, в 2013 году покорила сердца игроманов проникновенностью человеческих взаимоотношений, развивающихся на фоне опасного путешествия среди мутировавших монстров и людей, что выживают за пределами карантинных зон в диких условиях. Команда создателей во главе с Дракманном и Мэйзиным кропотливо перенесла сюжетные и визуальные элементы из игры на экраны так, чтобы не только отдать дань игроманам, но и привлечь к миру The Last of Us широкую аудиторию. Как и в игре, музыку для сериала писал композитор Густаво Сантаолалья, сохранив при этом главную тему. Главные роли в шоу исполнили знакомые нашим зрителям по другим проектам актеры: Педро Паскаль, Белла Рэмси, Анна Торв, Гэбриел Луна, Мерл Дэндридж, Ник Офферман и другие. В съемках также приняли участие актеры Трой Бэйкер и Эшли Джонсон, исполнившие роли Джоэла и Элли в оригинальной игре.

В 2003 году в мире разразилась глобальная пандемия, вызванная мутировавшим грибком кордицепсом. Инфицированные люди превращались в бездумных чудовищ, распространяя инфекцию с космической скоростью по миру. В самом начале трагедии братья Джоэл (Педро Паскаль) и Томми (Гэбриел Луна) пытаются выбраться из охваченного хаосом города, однако в ту злополучную ночь Джоэл трагически теряет свою дочку (Нико Паркер), и это событие навсегда меняет его жизнь и его самого. Спустя 20 лет Джоэл промышляет контрабандой и считается одним из самых матерых выживальщиков, способных пробраться в опаснейшие уголки за пределами безопасной зоны и перевезти все, что угодно. Одним из заданий для него и его верной подруги Тэсс (Анна Торв) становится «доставка» девочки Элли (Белла Рэмси) к группировке «Цикады», борющейся с диктатурой, установленной военными на останках цивилизации США. Вот только довольно простое на первый взгляд задание превращается в долгое и опасное путешествие, в ходе которого Джоэл узнает об истинной ценности Элли…

Страна: Одни из нас / The Last of Us [01x01-03 из 09] (2023) WEB-DLRip-AVC от DoMiNo & селезень | D Канада, США
Студия: Canadian Film or Video Production Tax Credit (CPTC), Government of Alberta, Naughty Dog
Продолжительность: ~01:00:00 серия
Перевод: Дубляж — Red Head Sound
Субтитры: Russian (Forced, Full |HBO|), English (Full, SDH)

Файл
Формат: Matroska
Качество: WEB-DLRip-AVC
Видео: 1024×576 at 23.976 fps, [email protected], ~1847 kbps
Аудио: AC3, 6 ch, ~448 kbps — | Русский |
Формат субтитров: softsub (SRT)

Одни из нас / The Last of Us [01x01-03 из 09] (2023) WEB-DLRip-AVC от DoMiNo & селезень | D

Авторизуйтесь для получения доступа к скачиванию

Нет аккаунта? Регистрация открыта и займёт меньше минуты

Вход Регистрация

x264 [info]: frame I:930 Avg QP:16.45 size: 57952
x264 [info]: frame P:24152 Avg QP:18.27 size: 20737
x264 [info]: frame B:91257 Avg QP:20.44 size: 6202

General
Unique ID : 25778168707401619962802954513518914635 (0×1364B1D805FBC2FA66B8E68870BF6C4B)
Complete name : E:The.Last.of.Us.S01E01.WEB-DLRip.x264.seleZen.mkv
Format : Matroska
Format version : Version 4
File size : 1.30 GiB
Duration : 1 h 20 min
Overall bit rate : 2 298 kb/s
Movie name : seleZen
Encoded date : UTC 20.01.2023 07:11:54
Writing application : mkvmerge v73.0.0 ('25 or 6 to 4') 64-bit
Writing library : libebml v1.4.4 + libmatroska v1.7.1
Cover : Yes
Attachments : cover.jpg / small_cover.jpg

Video
ID : 1
Format : AVC
Format/Info : Advanced Video Codec
Format profile : [email protected]
Format settings : CABAC / 10 Ref Frames
Format settings, CABAC : Yes
Format settings, Reference : 10 frames
Codec ID : V_MPEG4/ISO/AVC
Duration : 1 h 20 min
Bit rate : 1 848 kb/s
Width : 1 024 pixels
Height : 576 pixels
Display aspect ratio : 16:9
Frame rate mode : Constant
Frame rate : 23.976 (24000/1001) FPS
Color space : YUV
Chroma subsampling : 4:2:0
Bit depth : 8 bits
Scan type : Progressive
Bits/(Pixel*Frame) : 0.131
Stream size : 1.04 GiB (80%)
Title : -=DoMiNo=-
Writing library : x264 core 164 by -=DoMiNo=-
Encoding settings : cabac=1 / ref=10 / deblock=1:-2:-1 / analyse=0×3:0×133 / me=umh / subme=10 / psy=1 / psy_rd=1.00:0.20 / mixed_ref=1 / me_range=32 / chroma_me=1 / trellis=2 / 8×8dct=1 / cqm=0 / deadzone=21,11 / fast_pskip=0 / chroma_qp_offset=-3 / threads=17 / lookahead_threads=4 / sliced_threads=0 / nr=0 / decimate=1 / interlaced=0 / bluray_compat=0 / constrained_intra=0 / bframes=10 / b_pyramid=2 / b_adapt=2 / b_bias=0 / direct=1 / weightb=1 / open_gop=0 / weightp=2 / keyint=240 / keyint_min=23 / scenecut=40 / intra_refresh=0 / rc=crf / mbtree=0 / crf=19.5 / qcomp=0.60 / qpmin=0 / qpmax=69 / qpstep=4 / ip_ratio=1.35 / pb_ratio=1.25 / aq=2:1.00
Language : English
Default : Yes
Forced : No
Color range : Limited
Matrix coefficients : BT.709

Audio
ID : 2
Format : AC-3
Format/Info : Audio Coding 3
Commercial name : Dolby Digital
Codec ID : A_AC3
Duration : 1 h 20 min
Bit rate mode : Constant
Bit rate : 448 kb/s
Channel (s) : 6 channels
Channel layout : L R C LFE Ls Rs
Sampling rate : 48.0 kHz
Frame rate : 31.250 FPS (1536 SPF)
Compression mode : Lossy
Stream size : 259 MiB (19%)
Title : DUB_[Red Head Sound]
Language : Russian
Service kind : Complete Main
Default : Yes
Forced : Yes

Text #1
ID : 3
Format : UTF-8
Codec ID : S_TEXT/UTF8
Codec ID/Info : UTF-8 Plain Text
Duration : 1 h 14 min
Bit rate : 2 b/s
Frame rate : 0.006 FPS
Count of elements : 29
Stream size : 1.44 KiB (0%)
Title : Forced
Language : Russian
Default : Yes
Forced : Yes

Text #2
ID : 4
Format : UTF-8
Codec ID : S_TEXT/UTF8
Codec ID/Info : UTF-8 Plain Text
Duration : 1 h 20 min
Bit rate : 68 b/s
Frame rate : 0.200 FPS
Count of elements : 968
Stream size : 40.5 KiB (0%)
Title : Full
Language : Russian
Default : No
Forced : No

Text #3
ID : 5
Format : UTF-8
Codec ID : S_TEXT/UTF8
Codec ID/Info : UTF-8 Plain Text
Duration : 1 h 18 min
Bit rate : 49 b/s
Frame rate : 0.208 FPS
Count of elements : 982
Stream size : 28.7 KiB (0%)
Title : Full
Language : English
Default : No
Forced : No

Text #4
ID : 6
Format : UTF-8
Codec ID : S_TEXT/UTF8
Codec ID/Info : UTF-8 Plain Text
Duration : 1 h 20 min
Bit rate : 60 b/s
Frame rate : 0.258 FPS
Count of elements : 1247
Stream size : 35.4 KiB (0%)
Title : SDH
Language : English
Default : No
Forced : No

Другие фильмы
Комментарии:

...
sanders2 2 февраля 2023 21:29
0

Отличный  серик, хотя никогда не  смотрю  сериалы, это порадовал  очень! Благодарю  за  работу!

...
-=DoMiNo=- 20 января 2023 16:26
0

От меня нет.

...
redbol 20 января 2023 14:27
0

Лучшие, спасибо! Будет разрешение повыше? Я про «Видео: 1024×576»

Информация
Посетители, находящиеся в группе Гости, не могут оставлять комментарии к данной публикации.
Самый популярный релиз недели

Кино копилка
...
Какую тему вы используете?

Реклама
Последние комментарии
...

dembell56

6 февраля 2023 20:48

...

dembell56

6 февраля 2023 20:37

...

dembell56

3 февраля 2023 19:28

...

sanders2

2 февраля 2023 21:29

...

ivanfan1337

1 февраля 2023 12:49

Реклама