+3

Логово / The Lair (2022) WEB-DLRip 720p от DoMiNo & селезень | D | Локализованная версия

Информация о фильме
Название: Логово
Оригинальное название: The Lair
Год выхода: 2022
Жанр: Ужасы, боевик
Режиссер: Нил Маршалл
В ролях: Шарлотта Кирк, Джонатан Ховард, Джейми Бамбер, Леон Окенден, Трой Александр, Чезаре Таурази, Марк Стрепан, Хади Ханъянпур, Тандзи Кибонг, Марк Арендс

Описание:
Пилот-лейтенант Кейт Синклер, сбитая повстанцами в Афганистане, убегая от них, прячется в заброшенном подземном бункере, где пробуждается смертоносное биологическое оружие — человек, скрещенный с инопланетянином, созданное русскими во времена афганской войны.

Страна: Великобритания, США, Венгрия
Студия: Ashland Hill Media Finance, Ingenious Film Partners, Rather Good Films, Scarlett Productions Ltd.
Продолжительность: 01:36:39
Перевод: Профессиональный (Дублированный) | СиПиАй Филмз / CPI Films

Файл
Формат: Matroska
Качество: WEB-DLRip 720p | Локализованная версия
Видео: 1280x536 at 24.000 fps, [email protected], ~1947 kbps
Аудио: AC3, 6 ch, ~384 kbps - | Русский | Логово / The Lair (2022) WEB-DLRip 720p от DoMiNo & селезень | D | Локализованная версия
Субтитры: Русские (форсированные (хардсаб))

Логово / The Lair (2022) WEB-DLRip 720p от DoMiNo & селезень | D | Локализованная версия

Авторизуйтесь для получения доступа к скачиванию

Нет аккаунта? Регистрация открыта и займёт меньше минуты

Вход Регистрация

x264 [info]: frame I:1177 Avg QP:16.64 size: 55703
x264 [info]: frame P:32663 Avg QP:18.14 size: 20959
x264 [info]: frame B:105347 Avg QP:19.69 size: 6278
x264 [info]: consecutive B-frames: 4,3% 5,3% 10,2% 19,6% 18,1% 10,3% 3,9% 3,7% 21,8% 0,9% 0,3% 0,3% 0,3%

General
Unique ID : 256694906456213150103403474671794130066 (0xC11DA4045CDC882F6F418CA308240C92)
Complete name : D:The.Lair.2022.Local.WEB-DLRip.720p.x264.seleZen.mkv
Format : Matroska
Format version : Version 4
File size : 1.58 GiB
Duration : 1 h 36 min
Overall bit rate : 2 333 kb/s
Movie name : The.Lair.2022.Local.WEB-DLRip.720p.x264.seleZen
Encoded date : UTC 23.01.2023 17:36:19
Writing application : mkvmerge v73.0.0 ('25 or 6 to 4') 64-bit
Writing library : libebml v1.4.4 + libmatroska v1.7.1
Cover : Yes
Attachments : cover.jpg / small_cover.jpg

Video
ID : 1
Format : AVC
Format/Info : Advanced Video Codec
Format profile : [email protected]
Format settings : CABAC / 9 Ref Frames
Format settings, CABAC : Yes
Format settings, Reference : 9 frames
Codec ID : V_MPEG4/ISO/AVC
Duration : 1 h 36 min
Bit rate : 1 947 kb/s
Width : 1 280 pixels
Height : 536 pixels
Display aspect ratio : 2.40:1
Frame rate mode : Constant
Frame rate : 24.000 FPS
Color space : YUV
Chroma subsampling : 4:2:0
Bit depth : 8 bits
Scan type : Progressive
Bits/(Pixel*Frame) : 0.118
Stream size : 1.31 GiB (83%)
Title : -=DoMiNo=-
Writing library : x264 core 164 by -=DoMiNo=-
Encoding settings : cabac=1 / ref=9 / deblock=1:-2:-1 / analyse=0×3:0×133 / me=umh / subme=9 / psy=1 / psy_rd=1.10:0.15 / mixed_ref=1 / me_range=32 / chroma_me=1 / trellis=2 / 8×8dct=1 / cqm=0 / deadzone=21,11 / fast_pskip=0 / chroma_qp_offset=-3 / threads=17 / lookahead_threads=4 / sliced_threads=0 / nr=0 / decimate=1 / interlaced=0 / bluray_compat=0 / constrained_intra=0 / bframes=12 / b_pyramid=2 / b_adapt=2 / b_bias=0 / direct=1 / weightb=1 / open_gop=0 / weightp=2 / keyint=240 / keyint_min=24 / scenecut=40 / intra_refresh=0 / rc=crf / mbtree=0 / crf=20.5 / qcomp=0.60 / qpmin=0 / qpmax=69 / qpstep=4 / ip_ratio=1.35 / pb_ratio=1.25 / aq=1:0.90
Language : English
Default : Yes
Forced : No
Color range : Limited
Matrix coefficients : BT.709

Audio
ID : 2
Format : AC-3
Format/Info : Audio Coding 3
Commercial name : Dolby Digital
Codec ID : A_AC3
Duration : 1 h 36 min
Bit rate mode : Constant
Bit rate : 384 kb/s
Channel (s) : 6 channels
Channel layout : L R C LFE Ls Rs
Sampling rate : 48.0 kHz
Frame rate : 31.250 FPS (1536 SPF)
Compression mode : Lossy
Stream size : 265 MiB (16%)
Title : DUB
Language : Russian
Service kind : Complete Main
Default : Yes
Forced : Yes

Menu
00:00:00.000 : en:Глава 01
00:11:40.000 : en:Глава 02
00:23:20.000 : en:Глава 03
00:35:00.000 : en:Глава 04
00:46:40.000 : en:Глава 05
00:58:20.000 : en:Глава 06
01:10:00.000 : en:Глава 07
01:21:40.000 : en:Глава 08
01:33:20.000 : en:Глава 09

Другие фильмы
У данной публикации пока нет комментариев.
Будь первым, оставь своё мнение в комментариях!
Информация
Посетители, находящиеся в группе Гости, не могут оставлять комментарии к данной публикации.
Самый популярный релиз недели

Кино копилка
...
Какую тему вы используете?

Реклама
Последние комментарии
...

dembell56

6 февраля 2023 20:48

...

dembell56

6 февраля 2023 20:37

...

dembell56

3 февраля 2023 19:28

...

sanders2

2 февраля 2023 21:29

...

ivanfan1337

1 февраля 2023 12:49

Реклама