+4

Последний рейс / Paradise Highway (2022) BDRip-AVC от DoMiNo & селезень | D

Информация о фильме
Название: Последний рейс
Оригинальное название: Paradise Highway
Год выпуска: 2022
Жанр: Триллер
Режиссер: Анна Гуттормсгард / Anna Guttormsgaard
В ролях: Морган Фриман, Камерон Монахэн, Фрэнк Грилло, Жюльет Бинош, Вероника Феррес, Кристиана Сидел, Джеки Даллас, Хала Финли, Ти Джэй Дженкенс, Уокер Бэбингтон

О фильме:
Водитель грузовика вынуждена заниматься контрабандой запрещенных грузов, чтобы спасти своего брата от смертельно опасной тюремной банды. Оперативники ФБР идут по ее следу, но когда в последней посылке оказывается девочка-подросток, Салли понимает, что это зашло слишком далеко.

Страна: Германия, США, Швейцария
Студия: Praesens-Film, Silver Reel, Strike Accord, ZDF Enterprises
Продолжительность: 01:54:43
Перевод: Дублированный | Велес
Субтитры: Русские (Forced, full), английские

Файл
Формат: Matroska
Качество: BDRip-AVC
Видео: 1024x428 at 23.976 fps, [email protected], ~2053 kbps
Аудио 1: AC3, 6 ch, ~384 kbps - | Русский | Последний рейс / Paradise Highway (2022) BDRip-AVC от DoMiNo & селезень | D
Аудио 2: AC3, 6 ch, ~448 kbps - | Английский |
Формат субтитров: softsub (SRT)

Последний рейс / Paradise Highway (2022) BDRip-AVC от DoMiNo & селезень | D

Авторизуйтесь для получения доступа к скачиванию

Нет аккаунта? Регистрация открыта и займёт меньше минуты

Вход Регистрация

x264 [info]: frame I:1094 Avg QP:17.77 size: 51567
x264 [info]: frame P:31194 Avg QP:19.40 size: 20989
x264 [info]: frame B:132761 Avg QP:20.81 size: 7951
x264 [info]: consecutive B-frames: 1,2% 1,3% 4,8% 12,0% 14,3% 51,7% 4,7% 0,9% 2,7% 0,6% 1,7% 2,1% 0,5%

General
Unique ID : 30509169495412299787952091945812151963 (0×16F3DA310D134ADAAD0F9D9520F0CE9B)
Complete name : D:Paradise.Highway.2022.BDRip.x264.seleZen.mkv
Format : Matroska
Format version : Version 4
File size : 2.31 GiB
Duration : 1 h 54 min
Overall bit rate : 2 888 kb/s
Movie name : Paradise.Highway.2022.BDRip.x264.seleZen
Encoded date : UTC 24.01.2023 10:01:40
Writing application : mkvmerge v73.0.0 ('25 or 6 to 4') 64-bit
Writing library : libebml v1.4.4 + libmatroska v1.7.1
Cover : Yes
Attachments : cover.jpg / small_cover.jpg

Video
ID : 1
Format : AVC
Format/Info : Advanced Video Codec
Format profile : [email protected]
Format settings : CABAC / 11 Ref Frames
Format settings, CABAC : Yes
Format settings, Reference : 11 frames
Codec ID : V_MPEG4/ISO/AVC
Duration : 1 h 54 min
Bit rate : 2 053 kb/s
Width : 1 024 pixels
Height : 428 pixels
Display aspect ratio : 2.40:1
Frame rate mode : Constant
Frame rate : 23.976 (24000/1001) FPS
Color space : YUV
Chroma subsampling : 4:2:0
Bit depth : 8 bits
Scan type : Progressive
Bits/(Pixel*Frame) : 0.195
Stream size : 1.65 GiB (71%)
Title : -=DoMiNo=-
Writing library : x264 core 164 by -=DoMiNo=-
Encoding settings : cabac=1 / ref=11 / deblock=1:-2:-1 / analyse=0×3:0×133 / me=umh / subme=11 / psy=1 / psy_rd=1.05:0.02 / mixed_ref=1 / me_range=48 / chroma_me=1 / trellis=2 / 8×8dct=1 / cqm=0 / deadzone=21,11 / fast_pskip=0 / chroma_qp_offset=-3 / threads=18 / lookahead_threads=3 / sliced_threads=0 / nr=0 / decimate=1 / interlaced=0 / bluray_compat=0 / constrained_intra=0 / bframes=12 / b_pyramid=2 / b_adapt=2 / b_bias=0 / direct=1 / weightb=1 / open_gop=0 / weightp=2 / keyint=240 / keyint_min=23 / scenecut=40 / intra_refresh=0 / rc=crf / mbtree=0 / crf=19.8 / qcomp=0.70 / qpmin=0 / qpmax=69 / qpstep=4 / ip_ratio=1.35 / pb_ratio=1.25 / aq=3:0.80
Language : English
Default : Yes
Forced : No
Color range : Limited
Matrix coefficients : BT.709

Audio #1
ID : 2
Format : AC-3
Format/Info : Audio Coding 3
Commercial name : Dolby Digital
Codec ID : A_AC3
Duration : 1 h 54 min
Bit rate mode : Constant
Bit rate : 384 kb/s
Channel (s) : 6 channels
Channel layout : L R C LFE Ls Rs
Sampling rate : 48.0 kHz
Frame rate : 31.250 FPS (1536 SPF)
Compression mode : Lossy
Stream size : 315 MiB (13%)
Title : Dub
Language : Russian
Service kind : Complete Main
Default : Yes
Forced : Yes

Audio #2
ID : 3
Format : AC-3
Format/Info : Audio Coding 3
Commercial name : Dolby Digital
Codec ID : A_AC3
Duration : 1 h 54 min
Bit rate mode : Constant
Bit rate : 448 kb/s
Channel (s) : 6 channels
Channel layout : L R C LFE Ls Rs
Sampling rate : 48.0 kHz
Frame rate : 31.250 FPS (1536 SPF)
Compression mode : Lossy
Stream size : 368 MiB (16%)
Title : Original
Language : English
Service kind : Complete Main
Default : No
Forced : No

Text #1
ID : 4
Format : UTF-8
Codec ID : S_TEXT/UTF8
Codec ID/Info : UTF-8 Plain Text
Duration : 1 h 22 min
Bit rate : 0 b/s
Frame rate : 0.001 FPS
Count of elements : 6
Stream size : 274 Bytes (0%)
Title : Forced
Language : Russian
Default : Yes
Forced : No

Text #2
ID : 5
Format : UTF-8
Codec ID : S_TEXT/UTF8
Codec ID/Info : UTF-8 Plain Text
Duration : 1 h 48 min
Bit rate : 62 b/s
Frame rate : 0.162 FPS
Count of elements : 1054
Stream size : 49.5 KiB (0%)
Title : Full
Language : Russian
Default : No
Forced : No

Text #3
ID : 6
Format : UTF-8
Codec ID : S_TEXT/UTF8
Codec ID/Info : UTF-8 Plain Text
Duration : 1 h 48 min
Bit rate : 42 b/s
Frame rate : 0.156 FPS
Count of elements : 1014
Stream size : 34.0 KiB (0%)
Title : Full
Language : English
Default : No
Forced : No

Text #4
ID : 7
Format : UTF-8
Codec ID : S_TEXT/UTF8
Codec ID/Info : UTF-8 Plain Text
Duration : 1 h 52 min
Bit rate : 47 b/s
Frame rate : 0.180 FPS
Count of elements : 1218
Stream size : 39.3 KiB (0%)
Title : SDH
Language : English
Default : No
Forced : No

Menu
00:00:00.000 : en:Chapter 01
00:07:30.450 : en:Chapter 02
00:15:18.918 : en:Chapter 03
00:23:41.420 : en:Chapter 04
00:28:56.735 : en:Chapter 05
00:35:44.142 : en:Chapter 06
00:41:17.475 : en:Chapter 07
00:48:38.916 : en:Chapter 08
00:54:45.282 : en:Chapter 09
01:01:13.670 : en:Chapter 10
01:08:08.084 : en:Chapter 11
01:17:09.625 : en:Chapter 12
01:21:44.900 : en:Chapter 13
01:29:46.881 : en:Chapter 14
01:38:38.913 : en:Chapter 15
01:50:08.352 : en:Chapter 16

Другие фильмы
У данной публикации пока нет комментариев.
Будь первым, оставь своё мнение в комментариях!
Информация
Посетители, находящиеся в группе Гости, не могут оставлять комментарии к данной публикации.
Самый популярный релиз недели

Кино копилка
...
Какую тему вы используете?

Реклама
Последние комментарии
...

dembell56

6 февраля 2023 20:48

...

dembell56

6 февраля 2023 20:37

...

dembell56

3 февраля 2023 19:28

...

sanders2

2 февраля 2023 21:29

...

ivanfan1337

1 февраля 2023 12:49

Реклама