+8

Вавилон / Babylon (2022) HDRip-AVC от DoMiNo & селезень | P

Информация о фильме
Название: Вавилон
Оригинальное название: Babylon
Год выпуска: 2022
Жанр: драма, комедия, история
Режиссер: Дэмьен Шазелл / Damien Chazelle
В ролях: Брэд Питт, Марго Робби, Джин Смарт, Оливия Уайлд, Джей Си Каррейс, Диего Кальва, Джимми Ортега, Маркос А. Ферраес, Шейн Пауэрс, Фиби Тонкин, Трой Меткалф, Йован Адепо, Хансфорд Принс, Телвин Гриффин, Катти Катберт, Альберт Хаммонд мл., Брегье Хайнен, Тоби Магуайр

О фильме:
Голливуд, конец 1920-х. Звезды немого кино пытаются найти место в новом мире, где набирают популярность звуковые фильмы. Успешная карьера старых кумиров неумолимо близится к закату.

Выпущено: США, C2 Motion Picture Group, Marc Platt Productions, Material Pictures, Organism Pictures, Paramount Pictures, Wild Chickens Productions
Продолжительность: 03:08:56
Перевод 1: Профессиональный (многоголосый, закадровый) | HDRezka Studio
Перевод 2: Профессиональный (многоголосый, закадровый) | TVShows
Перевод 3: Профессиональный (многоголосый, закадровый) | Jaskier 18 +
Субтитры: Русские (Forced, full), английские

Файл
Формат: Matroska
Качество: HDRip-AVC
Видео: 1024x428 at 23.976 fps, [email protected], ~2365 kbps
Аудио 1: AC3, 6 ch, ~448 kbps - | Русский | Вавилон / Babylon (2022) HDRip-AVC от DoMiNo & селезень | P | HDRezka Studio
Аудио 2: AC3, 2 ch, ~192 kbps - | Русский | | TVShows
Аудио 3: AC3, 6 ch, ~384 kbps - | Русский | | Jaskier 18 +
Аудио 4: AC3, 6 ch, ~448 kbps - | Английский | | Original
Формат субтитров: softsub (SRT)

Вавилон / Babylon (2022) HDRip-AVC от DoMiNo & селезень | P

Авторизуйтесь для получения доступа к скачиванию

Нет аккаунта? Регистрация открыта и займёт меньше минуты

Вход Регистрация

x264 [info]: frame I:1960 Avg QP:15.80 size: 62194
x264 [info]: frame P:59019 Avg QP:17.39 size: 24000
x264 [info]: frame B:210813 Avg QP:19.33 size: 8599

General
Unique ID : 165450400081468720686132629361184713488 (0x7C7896860A04CBDA4A940437F42BAB10)
Complete name : D:Babylon.2022.3xMVO.HDRip.x264.seleZen.mkv
Format : Matroska
Format version : Version 4
File size : 5.07 GiB
Duration : 3 h 9 min
Overall bit rate : 3 837 kb/s
Movie name : Babylon.2022.3xMVO.HDRip.x264.seleZen
Encoded date : UTC 2023-03-13 08:26:58
Writing application : mkvmerge v74.0.0 ('You Oughta Know') 64-bit
Writing library : libebml v1.4.4 + libmatroska v1.7.1
Cover : Yes
Attachments : cover.jpg / small_cover.jpg

Video
ID : 1
Format : AVC
Format/Info : Advanced Video Codec
Format profile : [email protected]
Format settings : CABAC / 12 Ref Frames
Format settings, CABAC : Yes
Format settings, Reference : 12 frames
Codec ID : V_MPEG4/ISO/AVC
Duration : 3 h 8 min
Bit rate : 2 365 kb/s
Width : 1 024 pixels
Height : 428 pixels
Display aspect ratio : 2.40:1
Frame rate mode : Constant
Frame rate : 23.976 (24000/1001) FPS
Color space : YUV
Chroma subsampling : 4:2:0
Bit depth : 8 bits
Scan type : Progressive
Bits/(Pixel*Frame) : 0.225
Stream size : 3.12 GiB (62%)
Title : -=DoMiNo=-
Writing library : x264 core 164 r3106+55M 24adf88 t_mod_New | by -=DoMiNo=- | X86_64]
Encoding settings : cabac=1 / ref=12 / deblock=1:-3:-3 / analyse=0x3:0x133 / me=umh / subme=10 / psy=1 / fade_compensate=0.00 / psy_rd=1.03:0.04 / mixed_ref=1 / me_range=32 / chroma_me=1 / trellis=2 / 8x8dct=1 / cqm=0 / deadzone=21,11 / fast_pskip=0 / chroma_qp_offset=-3 / threads=17 / lookahead_threads=3 / sliced_threads=0 / nr=0 / decimate=1 / interlaced=0 / bluray_compat=0 / constrained_intra=0 / fgo=0 / bframes=10 / b_pyramid=2 / b_adapt=2 / b_bias=0 / direct=3 / weightb=1 / open_gop=0 / weightp=2 / keyint=240 / keyint_min=23 / scenecut=40 / intra_refresh=0 / rc_lookahead=60 / rc=crf / mbtree=0 / crf=18.3000 / qcomp=0.60 / qpmin=0:0:0 / qpmax=69:69:69 / qpstep=4 / vbv_maxrate=50000 / vbv_bufsize=62500 / crf_max=0.0 / nal_hrd=none / filler=0 / ip_ratio=1.35 / pb_ratio=1.25 / aq=3:0.90 / aq-sensitivity=10.00 / aq-factor=1.00:1.00:1.00 / aq2=0 / aq3=0
Language : English
Default : Yes
Forced : No

Audio #1
ID : 2
Format : AC-3
Format/Info : Audio Coding 3
Commercial name : Dolby Digital
Codec ID : A_AC3
Duration : 3 h 9 min
Bit rate mode : Constant
Bit rate : 448 kb/s
Channel(s) : 6 channels
Channel layout : L R C LFE Ls Rs
Sampling rate : 48.0 kHz
Frame rate : 31.250 FPS (1536 SPF)
Compression mode : Lossy
Stream size : 606 MiB (12%)
Title : MVO_[HDRezka Studio]
Language : Russian
Service kind : Complete Main
Default : Yes
Forced : Yes

Audio #2
ID : 3
Format : AC-3
Format/Info : Audio Coding 3
Commercial name : Dolby Digital
Codec ID : A_AC3
Duration : 3 h 9 min
Bit rate mode : Constant
Bit rate : 192 kb/s
Channel(s) : 2 channels
Channel layout : L R
Sampling rate : 48.0 kHz
Frame rate : 31.250 FPS (1536 SPF)
Compression mode : Lossy
Stream size : 260 MiB (5%)
Title : MVO_[TVShows]
Language : Russian
Service kind : Complete Main
Default : No
Forced : No

Audio #3
ID : 4
Format : AC-3
Format/Info : Audio Coding 3
Commercial name : Dolby Digital
Codec ID : A_AC3
Duration : 3 h 9 min
Bit rate mode : Constant
Bit rate : 384 kb/s
Channel(s) : 6 channels
Channel layout : L R C LFE Ls Rs
Sampling rate : 48.0 kHz
Frame rate : 31.250 FPS (1536 SPF)
Compression mode : Lossy
Stream size : 519 MiB (10%)
Title : MVO_[Jaskier] - 18+
Language : Russian
Service kind : Complete Main
Default : No
Forced : No

Audio #4
ID : 5
Format : AC-3
Format/Info : Audio Coding 3
Commercial name : Dolby Digital
Codec ID : A_AC3
Duration : 3 h 8 min
Bit rate mode : Constant
Bit rate : 448 kb/s
Channel(s) : 6 channels
Channel layout : L R C LFE Ls Rs
Sampling rate : 48.0 kHz
Frame rate : 31.250 FPS (1536 SPF)
Compression mode : Lossy
Stream size : 605 MiB (12%)
Title : Original
Language : English
Service kind : Complete Main
Default : No
Forced : No

Text #1
ID : 6
Format : UTF-8
Codec ID : S_TEXT/UTF8
Codec ID/Info : UTF-8 Plain Text
Duration : 2 h 50 min
Bit rate : 1 b/s
Frame rate : 0.003 FPS
Count of elements : 29
Stream size : 1.52 KiB (0%)
Title : Forced
Language : Russian
Default : Yes
Forced : No

Text #2
ID : 7
Format : UTF-8
Codec ID : S_TEXT/UTF8
Codec ID/Info : UTF-8 Plain Text
Duration : 3 h 0 min
Bit rate : 100 b/s
Frame rate : 0.217 FPS
Count of elements : 2356
Stream size : 133 KiB (0%)
Title : Full (FOCS) 18+
Language : Russian
Default : No
Forced : No

Text #3
ID : 8
Format : UTF-8
Codec ID : S_TEXT/UTF8
Codec ID/Info : UTF-8 Plain Text
Duration : 2 h 57 min
Bit rate : 58 b/s
Frame rate : 0.210 FPS
Count of elements : 2232
Stream size : 75.7 KiB (0%)
Title : English
Language : English
Default : No
Forced : No

Text #4
ID : 9
Format : UTF-8
Codec ID : S_TEXT/UTF8
Codec ID/Info : UTF-8 Plain Text
Duration : 2 h 57 min
Bit rate : 67 b/s
Frame rate : 0.251 FPS
Count of elements : 2685
Stream size : 87.3 KiB (0%)
Title : English SDH
Language : English
Default : No
Forced : No

Text #5
ID : 10
Format : UTF-8
Codec ID : S_TEXT/UTF8
Codec ID/Info : UTF-8 Plain Text
Duration : 2 h 48 min
Bit rate : 0 b/s
Frame rate : 0.004 FPS
Count of elements : 37
Stream size : 838 Bytes (0%)
Title : FORCED
Language : English
Default : No
Forced : No

Menu
00:00:00.000 : en:Chapter 01
00:08:34.180 : en:Chapter 02
00:14:10.308 : en:Chapter 03
00:24:45.484 : en:Chapter 04
00:31:53.203 : en:Chapter 05
00:40:24.005 : en:Chapter 06
00:54:45.532 : en:Chapter 07
01:00:54.234 : en:Chapter 08
01:11:47.303 : en:Chapter 09
01:23:13.488 : en:Chapter 10
01:37:01.149 : en:Chapter 11
01:48:29.253 : en:Chapter 12
01:58:42.782 : en:Chapter 13
02:07:16.254 : en:Chapter 14
02:12:13.342 : en:Chapter 15
02:19:44.042 : en:Chapter 16
02:33:15.103 : en:Chapter 17
02:38:31.502 : en:Chapter 18
02:50:09.533 : en:Chapter 19
03:00:48.713 : en:Chapter 20

Другие фильмы
У данной публикации пока нет комментариев.
Будь первым, оставь своё мнение в комментариях!
Информация
Посетители, находящиеся в группе Гости, не могут оставлять комментарии к данной публикации.
Самый популярный релиз недели
Донаты
Мы в соц. сетях / RSS

Лучшие релизы месяца
Лучшие SD недели
Лучшие 720p недели
Лучшие 1080p недели
Лучшие 4K недели
Вы недавно смотрели
Реклама
Последние комментарии
...

Desol

Сегодня, 00:28

...

diabloq

Вчера, 14:17

...

slightlymad

17 февраля 2024 21:01

...

takezi

15 февраля 2024 22:10

...

antilord90

15 февраля 2024 21:48

Реклама