+3

Истории из апокалипсиса / Хроники Апокалипсиса / Tales from Apocalypse (2022) WEB-DLRip-AVC от DoMiNo & селезень | P

Информация о фильме
Название: Истории из апокалипсиса / Хроники Апокалипсиса
Оригинальное название: Tales from Apocalypse
Год выпуска: 2022
Жанр: фантастика, боевик, драма
Режиссер: Damon Duncan, Уильям Хелльмут
В ролях: Стефани Барклей, Jefferson Ellis, Harlan Groom, Lila Guimarães, Жаклин Джо, James Luck, Wendy-Seme Orleans, Джей Ричардсон, Arthur Roberts, Мэтью Сандерлэнд

Описание:
Истории апокалипсиса расскажут про инженера, кружащего вокруг черной дыры в капсуле, 14-летнюю девочку и ее отца на обратном пути на Землю, когда взрыв повреждает их космический корабль. Искусственный интеллект отправляется в 4-е измерение, чтобы исправить будущее человечества...

Выпущено: США, Hewes Pictures
Продолжительность: 01:24:38
Перевод: Профессиональный (многоголосый закадровый) OKKO
Субтитры: отсутствуют

Файл
Формат: Matroska
Качество: WEB-DLRip-AVC
Видео: 1024x426 at 23.976 fps, [email protected], ~2088 kbps
Аудио: AC3, 6 ch, ~384 kbps - | Русский | Истории из апокалипсиса / Хроники Апокалипсиса / Tales from Apocalypse (2022) WEB-DLRip-AVC от DoMiNo & селезень | P
Формат субтитров: softsub (SRT)

Истории из апокалипсиса / Хроники Апокалипсиса / Tales from Apocalypse (2022) WEB-DLRip-AVC от DoMiNo & селезень | P

Авторизуйтесь для получения доступа к скачиванию

Нет аккаунта? Регистрация открыта и займёт меньше минуты

Вход Регистрация

x264 [info]: frame I:870 Avg QP:11.25 size: 60179
x264 [info]: frame P:23308 Avg QP:12.48 size: 24285
x264 [info]: frame B:97589 Avg QP:14.49 size: 7232

General
Unique ID : 259710883414998899025022396689386764951 (0xC3627F296252BEC9ECF5F9DB55AEFA97)
Complete name : I:Tales.from.Apocalypse.2022.WEB-DLRip.x264.seleZen.mkv
Format : Matroska
Format version : Version 4
File size : 1.46 GiB
Duration : 1 h 24 min
Overall bit rate : 2 472 kb/s
Movie name : Tales.from.Apocalypse.2022.WEB-DLRip.x264.seleZen
Encoded date : UTC 2023-03-19 09:29:56
Writing application : mkvmerge v74.0.0 ('You Oughta Know') 64-bit
Writing library : libebml v1.4.4 + libmatroska v1.7.1
Cover : Yes
Attachments : cover.jpg / small_cover.jpg

Video
ID : 1
Format : AVC
Format/Info : Advanced Video Codec
Format profile : [email protected]
Format settings : CABAC / 10 Ref Frames
Format settings, CABAC : Yes
Format settings, Reference : 10 frames
Codec ID : V_MPEG4/ISO/AVC
Duration : 1 h 24 min
Bit rate : 2 088 kb/s
Width : 1 024 pixels
Height : 426 pixels
Display aspect ratio : 2.40:1
Frame rate mode : Constant
Frame rate : 23.976 (24000/1001) FPS
Color space : YUV
Chroma subsampling : 4:2:0
Bit depth : 8 bits
Scan type : Progressive
Bits/(Pixel*Frame) : 0.200
Stream size : 1.23 GiB (84%)
Title : -=DoMiNo=-
Writing library : x264 core 164 r3106+55M 24adf88 t_mod_New | by -=DoMiNo=- | X86_64]
Encoding settings : cabac=1 / ref=10 / deblock=1:-3:-3 / analyse=0x3:0x133 / me=umh / subme=10 / psy=1 / fade_compensate=0.00 / psy_rd=1.05:0.15 / mixed_ref=1 / me_range=32 / chroma_me=1 / trellis=2 / 8x8dct=1 / cqm=0 / deadzone=21,11 / fast_pskip=0 / chroma_qp_offset=-3 / threads=17 / lookahead_threads=3 / sliced_threads=0 / nr=0 / decimate=1 / interlaced=0 / bluray_compat=0 / constrained_intra=0 / fgo=0 / bframes=10 / b_pyramid=2 / b_adapt=2 / b_bias=0 / direct=3 / weightb=1 / open_gop=0 / weightp=2 / keyint=240 / keyint_min=23 / scenecut=40 / intra_refresh=0 / rc_lookahead=60 / rc=2pass / mbtree=0 / bitrate=2088 / ratetol=1.0 / qcomp=0.60 / qpmin=0:0:0 / qpmax=69:69:69 / qpstep=4 / cplxblur=20.0 / qblur=0.5 / vbv_maxrate=50000 / vbv_bufsize=62500 / nal_hrd=none / filler=0 / ip_ratio=1.22 / pb_ratio=1.30 / aq=3:0.90 / aq-sensitivity=10.00 / aq-factor=1.00:1.00:1.00 / aq2=0 / aq3=0
Language : English
Default : Yes
Forced : No

Audio
ID : 2
Format : AC-3
Format/Info : Audio Coding 3
Commercial name : Dolby Digital
Codec ID : A_AC3
Duration : 1 h 24 min
Bit rate mode : Constant
Bit rate : 384 kb/s
Channel(s) : 6 channels
Channel layout : L R C LFE Ls Rs
Sampling rate : 48.0 kHz
Frame rate : 31.250 FPS (1536 SPF)
Compression mode : Lossy
Stream size : 232 MiB (16%)
Title : [MVO] DD 5.1 @ 384 kbps
Language : Russian
Service kind : Complete Main
Default : Yes
Forced : Yes

Menu
00:00:00.000 : en:Глава 01
00:11:40.000 : en:Глава 02
00:23:20.000 : en:Глава 03
00:35:00.000 : en:Глава 04
00:46:40.000 : en:Глава 05
00:58:20.000 : en:Глава 06
01:10:00.000 : en:Глава 07
01:21:40.000 : en:Глава 08

Другие фильмы
У данной публикации пока нет комментариев.
Будь первым, оставь своё мнение в комментариях!
Информация
Посетители, находящиеся в группе Гости, не могут оставлять комментарии к данной публикации.
Самый популярный релиз недели
Донаты
Мы в соц. сетях / RSS

Лучшие релизы месяца
Лучшие SD недели
Лучшие 720p недели
Лучшие 1080p недели
Лучшие 4K недели
Вы недавно смотрели
Реклама
Последние комментарии
...

-=DoMiNo=-

9 апреля 2024 17:43

...

supermehanik

9 апреля 2024 16:22

...

selezinka

5 апреля 2024 16:20

...

Kirk1991

30 марта 2024 15:04

...

Robot

22 марта 2024 09:33

Реклама