+13

Банды Парижа / Apaches (2023) BDRip-AVC от DoMiNo & селезень | D

Информация о фильме
Название: Банды Парижа
Оригинальное название: Apaches
Год выпуска: 2023
Жанр: боевик, триллер, драма, история
Режиссер: Ромен Киро
В ролях: Алис Исааз, Нильс Шнайдер, Род Парадо, Артюс, Эмили Гавуа-Кан, Брюно Лоше, Юго Бекер, Армель Абибу, Доминик Пинон, Жан-Люк Кушар

О фильме:
Париж, начало XX века. Жестокая банда, именующая себя «Апаши», держит в страхе весь город. Молодая девушка Билли проникает в сообщество самых отчаянных головорезов и преступников, чтобы отомстить за смерть брата. Она планирует разобраться с каждым из них и добраться до их обаятельного вожака, к которому у неё неожиданно вспыхнут чувства. Что победит: неистовая любовь или застилающая глаза жажда мести?

Выпущено: Франция / Apaches, Studio Exception, La Banque Postale Image 15
Продолжительность: 01:34:19
Перевод: Дублированный | СиПиАй Филмз / CPI Films
Субтитры: Русские (Forced, full), английские

Файл
Формат: Matroska
Качество: BDRip-AVC
Видео: 1024x428 at 23.976 fps, [email protected], ~1835 kbps
Аудио: AC3, 6 ch, ~384 kbps - | Русский | Банды Парижа / Apaches (2023) BDRip-AVC от DoMiNo & селезень | D
Формат субтитров: softsub (SRT)
*** На пару фраз отсутствует перевод, переведено форсированными субтитрами.

Банды Парижа / Apaches (2023) BDRip-AVC от DoMiNo & селезень | D

Авторизуйтесь для получения доступа к скачиванию

Нет аккаунта? Регистрация открыта и займёт меньше минуты

Вход Регистрация

x264 [info]: frame I:985 Avg QP:13.83 size: 56720
x264 [info]: frame P:29563 Avg QP:16.10 size: 21948
x264 [info]: frame B:105148 Avg QP:18.16 size: 5630

General
Unique ID : 179013732597414942559104843663905137282 (0x86ACCA724CF597119AF572F9DA202282)
Complete name : I:Apaches.2023.DUB.BDRip.x264.seleZen.mkv
Format : Matroska
Format version : Version 4
File size : 1.46 GiB
Duration : 1 h 34 min
Overall bit rate : 2 219 kb/s
Frame rate : 23.976 FPS
Movie name : Apaches.2023.DUB.BDRip.x264.seleZen
Encoded date : 2024-03-12 08:18:51 UTC
Writing application : mkvmerge v83.0 ('Circle Of Friends') 64-bit
Writing library : libebml v1.4.5 + libmatroska v1.7.1
Cover : Yes
Attachments : cover.jpg / small_cover.jpg

Video
ID : 1
Format : AVC
Format/Info : Advanced Video Codec
Format profile : [email protected]
Format settings : CABAC / 14 Ref Frames
Format settings, CABAC : Yes
Format settings, Reference : 14 frames
Codec ID : V_MPEG4/ISO/AVC
Duration : 1 h 34 min
Bit rate : 1 835 kb/s
Width : 1 024 pixels
Height : 428 pixels
Display aspect ratio : 2.40:1
Frame rate mode : Constant
Frame rate : 23.976 (24000/1001) FPS
Color space : YUV
Chroma subsampling : 4:2:0
Bit depth : 8 bits
Scan type : Progressive
Bits/(Pixel*Frame) : 0.175
Stream size : 1.21 GiB (83%)
Title : -=DoMiNo=-
Writing library : x264 core 164 r3179+58M 2d8d988 t_mod_New [(8 & 10)-DoMiNo- X86_64]
Encoding settings : cabac=1 / ref=14 / deblock=1:-2:-2 / analyse=0x3:0x133 / me=umh / subme=10 / psy=1 / fade_compensate=0.00 / psy_rd=1.00:0.15 / mixed_ref=1 / me_range=32 / chroma_me=1 / trellis=2 / 8x8dct=1 / cqm=0 / deadzone=21,11 / fast_pskip=0 / chroma_qp_offset=-3 / threads=13 / lookahead_threads=3 / sliced_threads=0 / nr=0 / decimate=0 / interlaced=0 / bluray_compat=0 / constrained_intra=0 / fgo=0 / bframes=10 / b_pyramid=2 / b_adapt=2 / b_bias=0 / direct=3 / weightb=1 / open_gop=0 / weightp=2 / keyint=250 / keyint_min=23 / scenecut=40 / intra_refresh=0 / rc_lookahead=60 / rc=2pass / mbtree=0 / bitrate=1835 / ratetol=1.0 / qcomp=0.65 / qpmin=0:0:0 / qpmax=69:69:69 / qpstep=4 / cplxblur=20.0 / qblur=0.5 / vbv_maxrate=50000 / vbv_bufsize=62500 / nal_hrd=none / filler=0 / ip_ratio=1.24 / pb_ratio=1.30 / aq=3:0.90 / aq-sensitivity=10.00 / aq-factor=1.00:1.00:1.00:1.00 / aq2=0 / aq3=0
Language : English
Default : Yes
Forced : No

Audio
ID : 2
Format : AC-3
Format/Info : Audio Coding 3
Commercial name : Dolby Digital
Codec ID : A_AC3
Duration : 1 h 34 min
Bit rate mode : Constant
Bit rate : 384 kb/s
Channel(s) : 6 channels
Channel layout : L R C LFE Ls Rs
Sampling rate : 48.0 kHz
Frame rate : 31.250 FPS (1536 SPF)
Compression mode : Lossy
Stream size : 259 MiB (17%)
Title : Дублированный | СиПиАй Филмз / CPI Films
Language : Russian
Service kind : Complete Main
Default : Yes
Forced : No

Text #1
ID : 3
Format : UTF-8
Codec ID : S_TEXT/UTF8
Codec ID/Info : UTF-8 Plain Text
Duration : 1 h 28 min
Bit rate : 2 b/s
Frame rate : 0.007 FPS
Count of elements : 37
Stream size : 1.88 KiB (0%)
Title : Forced
Language : Russian
Default : No
Forced : No

Text #2
ID : 4
Format : UTF-8
Codec ID : S_TEXT/UTF8
Codec ID/Info : UTF-8 Plain Text
Duration : 1 h 28 min
Bit rate : 63 b/s
Frame rate : 0.192 FPS
Count of elements : 1026
Stream size : 41.4 KiB (0%)
Title : Full
Language : Russian
Default : No
Forced : No

Text #3
ID : 5
Format : UTF-8
Codec ID : S_TEXT/UTF8
Codec ID/Info : UTF-8 Plain Text
Duration : 1 h 33 min
Bit rate : 32 b/s
Frame rate : 0.145 FPS
Count of elements : 813
Stream size : 22.2 KiB (0%)
Title : Full
Language : English
Default : No
Forced : No

Menu
00:00:00.000 : en:Chapter 01
00:05:48.181 : en:Chapter 02
00:12:58.528 : en:Chapter 03
00:19:44.850 : en:Chapter 04
00:30:11.143 : en:Chapter 05
00:38:46.115 : en:Chapter 06
00:43:56.050 : en:Chapter 07
00:51:51.233 : en:Chapter 08
01:02:04.721 : en:Chapter 09
01:09:47.683 : en:Chapter 10
01:20:19.815 : en:Chapter 11
01:29:17.102 : en:Chapter 12

Другие фильмы
У данной публикации пока нет комментариев.
Будь первым, оставь своё мнение в комментариях!
Информация
Посетители, находящиеся в группе Гости, не могут оставлять комментарии к данной публикации.
Самый популярный релиз недели
Донаты
Мы в соц. сетях / RSS

Лучшие релизы месяца
Лучшие SD недели
Лучшие 720p недели
Лучшие 1080p недели
Лучшие 4K недели
Вы недавно смотрели
Реклама
Последние комментарии
...

Tony1984

Сегодня, 14:36

...

bolonka123

Вчера, 10:05

...

Sergunka

17 апреля 2024 23:31

...

-=DoMiNo=-

17 апреля 2024 13:52

...

bolonka123

17 апреля 2024 11:43

Реклама