+12

Флэш / The Flash (2023) BDRip-AVC от DoMiNo & селезень | D

Информация о фильме
Название: Флэш
Оригинальное название: The Flash
Год выхода: 2023
Жанр: Фантастика, фэнтези, боевик, приключения, комикс, супергерой
Режиссер: Андрес Мускетти
В ролях: Эзра Миллер, Майкл Шеннон, Бен Аффлек, Майкл Китон, Рон Ливингстон, Антье Трауэ, Темуэра Моррисон, Сирша-Моника Джексон, Саша Калле, Кирси Клемонс, Марибель Верду, Руди Манкусо, Шон Роджерс

О фильме:
Барри Аллен, умеющий развивать фантастическую скорость и без труда преодолевать скорость света, отправляется в прошлое, чтобы изменить его, где встречает самого себя. Но его попытки спасти семью закономерно влияют на будущее, и Барри оказывается в ловушке в той реальности, где есть генерал Зод, но нет других супергероев, которые помогли бы побороть противника. Но, может быть, двум Барри удастся уговорить старого Бэтмена прервать свою пенсию, а также получить помощь от Супергерл… «Флэш» — история самого быстрого супергероя вселенной DC с Эзрой Миллером.

Страна: США
Студия: DC Comics, DC Studios, New Zealand Film Commission
Продолжительность: 02:24:06
Перевод: Дублированный | Bravo Records Georgia / Movie Dubbing
Субтитры: Русские (2 x Forced, full), английские

Файл
Формат: Matroska
Качество: BDRip-AVC
Видео: 720x380 at 23.976 fps, [email protected], ~1356 kbps
Аудио: AAC, 2 ch, ~96 kbps - | Русский | Флэш / The Flash (2023) BDRip-AVC от DoMiNo & селезень | D
Формат субтитров: softsub (SRT)

Авторизуйтесь для получения доступа к скачиванию

Нет аккаунта? Регистрация открыта и займёт меньше минуты

Вход Регистрация

x264 [info]: frame I: 2119 Avg QP: 17.23 size: 35358
x264 [info]: frame P: 51977 Avg QP: 19.69 size: 14086
x264 [info]: frame B: 153204 Avg QP: 22.03 size: 4296

General
Unique ID: 100789918834527518879228432544631601262 (0×4BD36EA9BE4A6A0D0093011A5D03B86E)
Complete name: I: The.Flash.DUB.BDRip.x264.seleZen.mkv
Format: Matroska
Format version: Version 4
File size: 1.46 GiB
Duration: 2 h 24 min
Overall bit rate: 1 453 kb/s
Frame rate: 23.976 FPS
Movie name: The.Flash.DUB.BDRip.x264.seleZen
Encoded date: 23.08.2023 16:57:31 UTC
Writing application: mkvmerge v79.0 ('Funeral Pyres') 64-bit
Writing library: libebml v1.4.4 + libmatroska v1.7.1
Cover: Yes
Attachments: cover.jpg / small_cover.jpg

Video
ID: 1
Format: AVC
Format/Info: Advanced Video Codec
Format profile: [email protected]
Format settings: CABAC / 14 Ref Frames
Format settings, CABAC: Yes
Format settings, Reference: 14 frames
Codec ID: V_MPEG4/ISO/AVC
Duration: 2 h 24 min
Bit rate: 1 356 kb/s
Width: 720 pixels
Height: 380 pixels
Display aspect ratio: 1.895
Frame rate mode: Constant
Frame rate: 23.976 (24000/1001) FPS
Color space: YUV
Chroma subsampling: 4:2:0
Bit depth: 8 bits
Scan type: Progressive
Bits/(Pixel*Frame): 0.207
Stream size: 1.36 GiB (93%)
Title: -=DoMiNo=-
Writing library: x264 core 164 r3107+58M ae98796 t_mod_New | by -=DoMiNo=- | X86_64]
Encoding settings: cabac=1 / ref=14 / deblock=1:-1:-1 / analyse=0×3:0×133 / me=umh / subme=10 / psy=1 / fade_compensate=0.00 / psy_rd=1.00:0.00 / mixed_ref=1 / me_range=40 / chroma_me=1 / trellis=2 / 8×8dct=1 / cqm=0 / deadzone=21,11 / fast_pskip=0 / chroma_qp_offset=-2 / threads=12 / lookahead_threads=2 / sliced_threads=0 / nr=0 / decimate=1 / interlaced=0 / bluray_compat=0 / constrained_intra=0 / fgo=0 / bframes=12 / b_pyramid=2 / b_adapt=2 / b_bias=0 / direct=3 / weightb=1 / open_gop=0 / weightp=2 / keyint=240 / keyint_min=23 / scenecut=40 / intra_refresh=0 / rc_lookahead=60 / rc=2pass / mbtree=0 / bitrate=1356 / ratetol=1.0 / qcomp=0.75 / qpmin=0:0:0 / qpmax=69:69:69 / qpstep=4 / cplxblur=20.0 / qblur=0.5 / vbv_maxrate=50000 / vbv_bufsize=62500 / nal_hrd=none / filler=0 / ip_ratio=1.20 / pb_ratio=1.30 / aq=1:0.90 / aq-sensitivity=10.00 / aq-factor=1.00:1.00:1.00 / aq2=0 / aq3=0
Language: English
Default: Yes
Forced: No

Audio
ID: 2
Format: AAC LC SBR
Format/Info: Advanced Audio Codec Low Complexity with Spectral Band Replication
Commercial name: HE-AAC
Format settings: Explicit
Codec ID: A_AAC-2
Duration: 2 h 24 min
Bit rate: 96.0 kb/s
Channel (s): 2 channels
Channel layout: L R
Sampling rate: 48.0 kHz
Frame rate: 23.438 FPS (2048 SPF)
Compression mode: Lossy
Stream size: 97.6 MiB (7%)
Title: Dub [Bravo Records Georgia / Movie Dubbing]
Language: Russian
Default: Yes
Forced: No

Text #1
ID: 3
Format: UTF-8
Codec ID: S_TEXT/UTF8
Codec ID/Info: UTF-8 Plain Text
Duration: 2 h 14 min
Bit rate: 0 b/s
Frame rate: 0.003 FPS
Count of elements: 24
Stream size: 818 Bytes (0%)
Title: Forced
Language: Russian
Default: Yes
Forced: No

Text #2
ID: 4
Format: UTF-8
Codec ID: S_TEXT/UTF8
Codec ID/Info: UTF-8 Plain Text
Duration: 2 h 23 min
Bit rate: 72 b/s
Frame rate: 0.228 FPS
Count of elements: 1966
Stream size: 76.2 KiB (0%)
Title: Full
Language: Russian
Default: No
Forced: No

Text #3
ID: 5
Format: UTF-8
Codec ID: S_TEXT/UTF8
Codec ID/Info: UTF-8 Plain Text
Duration: 2 h 23 min
Bit rate: 1 b/s
Frame rate: 0.005 FPS
Count of elements: 39
Stream size: 1.79 KiB (0%)
Title: Forced [HDRezka Studio]
Language: Russian
Default: No
Forced: No

Text #4
ID: 6
Format: UTF-8
Codec ID: S_TEXT/UTF8
Codec ID/Info: UTF-8 Plain Text
Duration: 2 h 23 min
Bit rate: 51 b/s
Frame rate: 0.227 FPS
Count of elements: 1950
Stream size: 54.3 KiB (0%)
Title: Full
Language: English
Default: No
Forced: No

Text #5
ID: 7
Format: UTF-8
Codec ID: S_TEXT/UTF8
Codec ID/Info: UTF-8 Plain Text
Duration: 2 h 23 min
Bit rate: 63 b/s
Frame rate: 0.287 FPS
Count of elements: 2481
Stream size: 66.9 KiB (0%)
Title: SDH
Language: English
Default: No
Forced: No

Menu
00:00:00.000: en: Chapter 01
00:07:01.212: en: Chapter 02
00:15:41.399: en: Chapter 03
00:22:59.336: en: Chapter 04
00:30:49.139: en: Chapter 05
00:36:46.704: en: Chapter 06
00:45:41.530: en: Chapter 07
00:54:54.666: en: Chapter 08
01:02:07.974: en: Chapter 09
01:11:10.016: en: Chapter 10
01:20:55.809: en: Chapter 11
01:29:40.041: en: Chapter 12
01:37:53.451: en: Chapter 13
01:47:28.734: en: Chapter 14
01:56:48.793: en: Chapter 15
02:06:24.911: en: Chapter 16
02:13:57.821: en: Chapter 17
02:22:36.298: en: Chapter 18

Другие фильмы
У данной публикации пока нет комментариев.
Будь первым, оставь своё мнение в комментариях!
Информация
Посетители, находящиеся в группе Гости, не могут оставлять комментарии к данной публикации.
Самый популярный релиз недели
Донаты
Мы в соц. сетях / RSS

Лучшие релизы месяца
Лучшие SD недели
Лучшие 720p недели
Лучшие 1080p недели
Лучшие 4K недели
Вы недавно смотрели
Реклама
Последние комментарии
...

Al1ksandr

22 сентября 2023 17:09

...

Al1ksandr

22 сентября 2023 17:08

...

avtkit

21 сентября 2023 22:21

...

litas

21 сентября 2023 21:56

...

simon333

21 сентября 2023 08:16

Реклама