+22

В паутине страха / Cobweb (2023) BDRip 720p от DoMiNo & селезень | D, P

Информация о фильме
Название: В паутине страха
Оригинальное название: Cobweb
Год выпуска: 2023
Жанр: Ужасы, триллер
Режиссер: Сэмюэл Бодин / Samuel Bodin
В ролях: Лиззи Каплан, Энтони Старр, Клеопатра Коулмэн, Вуди Норман, Люк Самсон Бьюзи, Александра Драгова, Джей Ринкон, Антон Коттас, Стефани Томас, Живко Михайлов, Илиан Николов, Илиян Николов, Александр Аспарухов, Виктория Великова, Кейт Николс

О фильме:
Восьмилетнего Питера преследует таинственный, постоянный стук, стук из стены его спальни — стук, который, по утверждению его родителей, всецело в его воображении. По мере того, как страх Питера усиливается, он считает, что его родители могут скрывать ужасную, опасную тайну, и ставит под сомнение их доверие. А для ребенка что может быть страшнее этого?

Выпущено: США, Lionsgate, Media Capital Technologies, Point Grey Pictures, Vertigo Entertainment
Продолжительность: 01:28:05
Перевод 1: Дублированный | Мосфильм-Мастер
Перевод 2: Профессиональный (многоголосый, закадровый) | Jaskier
Перевод 3: Профессиональный (многоголосый, закадровый) | TVShows
Субтитры: Русские (Forced, Full), английские (Full, SDH)

Файл
Формат: Matroska
Качество: BDRip 720p [исх.Cobweb.2023.1080p.BluRay.REMUX.AVC.DTS-HD.MA.5.1-TRiToN]
Видео: 1280x536 at 23.976 fps, [email protected], ~3089 kbps
Аудио 1: AC3, 6 ch, ~384 kbps - | Русский | В паутине страха / Cobweb (2023) BDRip 720p от DoMiNo & селезень | D, P | Мосфильм-Мастер
Аудио 2: AC3, 6 ch, ~384 kbps - | Русский | | Jaskier
Аудио 3: AC3, 6 ch, ~384 kbps - | Русский | | TVShows
Аудио 4: AC3, 6 ch, ~384 kbps - | Английский | | Original
Формат субтитров: softsub (SRT)

Авторизуйтесь для получения доступа к скачиванию

Нет аккаунта? Регистрация открыта и займёт меньше минуты

Вход Регистрация

General
Unique ID : 111065379006182988224195957862689999018 (0x538E69F6BE989FD1B799B5219B9508AA)
Complete name : S:Cobweb.2023.DUB.MVO.BDRip.720p.x264.seleZen.mkv
Format : Matroska
Format version : Version 4
File size : 2.85 GiB
Duration : 1 h 28 min
Overall bit rate : 4 628 kb/s
Frame rate : 23.976 FPS
Movie name : Cobweb.2023.DUB.MVO.BDRip.720p.x264.seleZen
Encoded date : 2024-02-18 08:43:10 UTC
Writing application : mkvmerge v82.0 ('I'm The President') 64-bit
Writing library : libebml v1.4.5 + libmatroska v1.7.1
Cover : Yes
Attachments : cover.jpg / small_cover.jpg

Video
ID : 1
Format : AVC
Format/Info : Advanced Video Codec
Format profile : [email protected]
Format settings : CABAC / 12 Ref Frames
Format settings, CABAC : Yes
Format settings, Reference : 12 frames
Codec ID : V_MPEG4/ISO/AVC
Duration : 1 h 28 min
Bit rate : 3 089 kb/s
Width : 1 280 pixels
Height : 536 pixels
Display aspect ratio : 2.40:1
Frame rate mode : Constant
Frame rate : 23.976 (24000/1001) FPS
Color space : YUV
Chroma subsampling : 4:2:0
Bit depth : 8 bits
Scan type : Progressive
Bits/(Pixel*Frame) : 0.188
Stream size : 1.90 GiB (67%)
Title : -=DoMiNo=-
Writing library : x264 core 164 r3107+58M ae98796 t_mod_New | by -=DoMiNo=- | X86_64]
Encoding settings : cabac=1 / ref=12 / deblock=1:-2:-2 / analyse=0x3:0x133 / me=umh / subme=10 / psy=1 / fade_compensate=0.00 / psy_rd=1.05:0.15 / mixed_ref=1 / me_range=40 / chroma_me=1 / trellis=2 / 8x8dct=1 / cqm=0 / deadzone=21,11 / fast_pskip=0 / chroma_qp_offset=-3 / threads=17 / lookahead_threads=4 / sliced_threads=0 / nr=0 / decimate=1 / interlaced=0 / bluray_compat=0 / constrained_intra=0 / fgo=0 / bframes=10 / b_pyramid=2 / b_adapt=2 / b_bias=0 / direct=3 / weightb=1 / open_gop=0 / weightp=2 / keyint=240 / keyint_min=24 / scenecut=40 / intra_refresh=0 / rc_lookahead=60 / rc=crf / mbtree=0 / crf=17.0000 / qcomp=0.70 / qpmin=0:0:0 / qpmax=69:69:69 / qpstep=4 / vbv_maxrate=50000 / vbv_bufsize=62500 / crf_max=0.0 / nal_hrd=none / filler=0 / ip_ratio=1.35 / pb_ratio=1.23 / aq=3:0.90 / aq-sensitivity=10.00 / aq-factor=1.00:1.00:1.00:1.00 / aq2=0 / aq3=0
Language : English
Default : Yes
Forced : No

Audio #1
ID : 2
Format : AC-3
Format/Info : Audio Coding 3
Commercial name : Dolby Digital
Codec ID : A_AC3
Duration : 1 h 28 min
Bit rate mode : Constant
Bit rate : 384 kb/s
Channel(s) : 6 channels
Channel layout : L R C LFE Ls Rs
Sampling rate : 48.0 kHz
Frame rate : 31.250 FPS (1536 SPF)
Compression mode : Lossy
Stream size : 242 MiB (8%)
Title : DUB - Мосфильм-Мастер
Language : Russian
Service kind : Complete Main
Default : Yes
Forced : No

Audio #2
ID : 3
Format : AC-3
Format/Info : Audio Coding 3
Commercial name : Dolby Digital
Codec ID : A_AC3
Duration : 1 h 28 min
Bit rate mode : Constant
Bit rate : 384 kb/s
Channel(s) : 6 channels
Channel layout : L R C LFE Ls Rs
Sampling rate : 48.0 kHz
Frame rate : 31.250 FPS (1536 SPF)
Compression mode : Lossy
Stream size : 242 MiB (8%)
Title : Jaskier
Language : Russian
Service kind : Complete Main
Default : No
Forced : No

Audio #3
ID : 4
Format : AC-3
Format/Info : Audio Coding 3
Commercial name : Dolby Digital
Codec ID : A_AC3
Duration : 1 h 28 min
Bit rate mode : Constant
Bit rate : 384 kb/s
Channel(s) : 6 channels
Channel layout : L R C LFE Ls Rs
Sampling rate : 48.0 kHz
Frame rate : 31.250 FPS (1536 SPF)
Compression mode : Lossy
Stream size : 242 MiB (8%)
Title : TVShows
Language : Russian
Service kind : Complete Main
Default : No
Forced : No

Audio #4
ID : 5
Format : AC-3
Format/Info : Audio Coding 3
Commercial name : Dolby Digital
Codec ID : A_AC3
Duration : 1 h 28 min
Bit rate mode : Constant
Bit rate : 384 kb/s
Channel(s) : 6 channels
Channel layout : L R C LFE Ls Rs
Sampling rate : 48.0 kHz
Frame rate : 31.250 FPS (1536 SPF)
Compression mode : Lossy
Stream size : 242 MiB (8%)
Title : Original
Language : English
Service kind : Complete Main
Default : No
Forced : No

Text #1
ID : 6
Format : UTF-8
Codec ID : S_TEXT/UTF8
Codec ID/Info : UTF-8 Plain Text
Duration : 1 h 3 min
Bit rate : 0 b/s
Frame rate : 0.003 FPS
Count of elements : 13
Stream size : 369 Bytes (0%)
Title : Forced
Language : Russian
Default : No
Forced : No

Text #2
ID : 7
Format : UTF-8
Codec ID : S_TEXT/UTF8
Codec ID/Info : UTF-8 Plain Text
Duration : 1 h 22 min
Bit rate : 42 b/s
Frame rate : 0.140 FPS
Count of elements : 692
Stream size : 25.3 KiB (0%)
Title : Full
Language : Russian
Default : No
Forced : No

Text #3
ID : 8
Format : UTF-8
Codec ID : S_TEXT/UTF8
Codec ID/Info : UTF-8 Plain Text
Duration : 1 h 21 min
Bit rate : 25 b/s
Frame rate : 0.131 FPS
Count of elements : 641
Stream size : 15.4 KiB (0%)
Title : Full
Language : English
Default : No
Forced : No

Text #4
ID : 9
Format : UTF-8
Codec ID : S_TEXT/UTF8
Codec ID/Info : UTF-8 Plain Text
Duration : 1 h 22 min
Bit rate : 38 b/s
Frame rate : 0.206 FPS
Count of elements : 1016
Stream size : 23.3 KiB (0%)
Title : SDH
Language : English
Default : No
Forced : No

Menu
00:00:00.000 : en:Chapter 01
00:06:51.244 : en:Chapter 02
00:11:43.411 : en:Chapter 03
00:17:31.842 : en:Chapter 04
00:23:23.360 : en:Chapter 05
00:28:42.095 : en:Chapter 06
00:34:48.503 : en:Chapter 07
00:40:54.452 : en:Chapter 08
00:47:00.568 : en:Chapter 09
00:51:14.530 : en:Chapter 10
00:54:38.108 : en:Chapter 11
01:01:22.429 : en:Chapter 12
01:05:08.947 : en:Chapter 13
01:10:30.643 : en:Chapter 14
01:13:36.162 : en:Chapter 15
01:18:19.194 : en:Chapter 16

Другие фильмы
У данной публикации пока нет комментариев.
Будь первым, оставь своё мнение в комментариях!
Информация
Посетители, находящиеся в группе Гости, не могут оставлять комментарии к данной публикации.
Самый популярный релиз недели
Донаты
Мы в соц. сетях / RSS

Лучшие релизы месяца
Лучшие SD недели
Лучшие 720p недели
Лучшие 1080p недели
Лучшие 4K недели
Вы недавно смотрели
Реклама
Последние комментарии
...

rmzshka

15 мая 2024 13:43

...

Andrey_Vladimirovich

13 мая 2024 18:12

...

Robot

13 мая 2024 16:53

...

rmzshka

13 мая 2024 16:21

...

supermehanik

13 мая 2024 02:03

Реклама