+14

Элементарно / Elemental (2023) BDRip 720p от селезень | D, P

Информация о фильме
Название: Элементарно
Оригинальное название: Elemental
Жанр: мультфильм, фантастика, фэнтези, драма, комедия, приключения, семейный
Год выпуска: 2023
Режиссер: Питер Сон / Peter Sohn
Роли озвучивали: Леа Льюис, Мамуду Ати, Роналдо Дель Кармен, Шила Омми, Венди Маклендон-Кови, Кэтрин О’Хара, Мэйсон Вартхаймер, Ронобир Лахири, Уильма Бонет, Джо Пера

Описание:
В Городе Стихий обитатели огня, воды, земли и воздуха живут вместе. У сильной и вспыльчивой Эмбер завязывается дружба с расслабленным, плывущим по течению Уэйдом — дружба, которая бросит вызов её представлениям о мире вокруг.

Страна: США
Студия: Pixar Animation Studios, Walt Disney Pictures
Бюджет: $200 000 000
Продолжительность: 01:41:28
Перевод(ы):
#1: Профессиональный (дублированный) | MovieDalen [Казахстан] [лицензия]
#2: Неофициальный (дублированный) | HotVoice 41
#3: Профессиональный многоголосый | TVShows

Качество: BDRip 720p
Видео: MPEG-4 AVC, 1280x692, 8075 Kbit/s, 23.976 fps
Аудио #01: 48 kHz, AC3, 2.0, 192 Kbps | Профессиональный (дублированный) | MovieDalen | RUS |Элементарно / Elemental (2023) BDRip 720p от селезень | D, P
Аудио #02: 48 kHz, AC3, 5.1, 640 Kbps | Неофициальный (дублированный) | HotVoice 41 | RUS |
Аудио #03: 48 kHz, AC3, 2.0, 256 Kbps | Профессиональный многоголосый | TVShows | RUS |
Аудио #04: 48 kHz, E-AC3, 5.1, 256 Kbps | Дублированный | UKR |
Аудио #05: 48 kHz, AC3, 5.1, 640 Kbps | Оригинал | ENG |
Субтитры: Русские (Forced, full), украинские (Forced, full), английские

Элементарно / Elemental (2023) BDRip 720p от селезень | D, P

Авторизуйтесь для получения доступа к скачиванию

Нет аккаунта? Регистрация открыта и займёт меньше минуты

Вход Регистрация

General
Unique ID : 111613389022479392542741166498659536744 (0x53F7F4F195BDE0F24131000BA9BD8F68)
Complete name : G:\VideoG\Elemental.2023.D.MVO.BDRip.720p.seleZen.mkv
Format : Matroska
Format version : Version 4
File size : 7.13 GiB
Duration : 1 h 41 min
Overall bit rate : 10.1 Mb/s
Frame rate : 23.976 FPS
Movie name : Elemental 2023 from seleZen
Encoded date : 2023-09-18 21:55:11 UTC
Writing application : mkvmerge v63.0.0 ('Everything') 64-bit
Writing library : libebml v1.4.2 + libmatroska v1.6.4

Video
ID : 1
Format : AVC
Format/Info : Advanced Video Codec
Format profile : [email protected]
Format settings : CABAC / 9 Ref Frames
Format settings, CABAC : Yes
Format settings, Reference frames : 9 frames
Codec ID : V_MPEG4/ISO/AVC
Duration : 1 h 41 min
Bit rate : 8 075 kb/s
Width : 1 280 pixels
Height : 692 pixels
Display aspect ratio : 1.85:1
Frame rate mode : Constant
Frame rate : 23.976 (24000/1001) FPS
Color space : YUV
Chroma subsampling : 4:2:0
Bit depth : 8 bits
Scan type : Progressive
Bits/(Pixel*Frame) : 0.380
Stream size : 5.72 GiB (80%)
Title : MTeam
Writing library : x264 core 157 r2938 2b00a84 TnP@MTeam Mod
Encoding settings : cabac=1 / ref=9 / deblock=1:-3:-3 / analyse=0x3:0x133 / me=umh / subme=10 / psy=1 / psy_rd=1.05:0.00 / mixed_ref=1 / me_range=32 / chroma_me=1 / trellis=2 / 8x8dct=1 / cqm=0 / deadzone=21,11 / fast_pskip=0 / chroma_qp_offset=-2 / threads=12 / lookahead_threads=2 / sliced_threads=0 / nr=0 / decimate=0 / interlaced=0 / bluray_compat=0 / constrained_intra=0 / bframes=8 / b_pyramid=2 / b_adapt=2 / b_bias=0 / direct=3 / weightb=1 / open_gop=0 / weightp=2 / keyint=250 / keyint_min=24 / scenecut=40 / intra_refresh=0 / rc_lookahead=250 / rc=crf / mbtree=0 / crf=16.8 / qcomp=0.60 / qpmin=0 / qpmax=69 / qpstep=4 / vbv_maxrate=62500 / vbv_bufsize=78125 / crf_max=0.0 / nal_hrd=none / filler=0 / ip_ratio=1.30 / pb_ratio=1.20 / aq=3:0.80
Language : English
Default : Yes
Forced : No
Color range : Limited
Color primaries : BT.709
Matrix coefficients : BT.709

Audio #1
ID : 2
Format : AC-3
Format/Info : Audio Coding 3
Commercial name : Dolby Digital
Codec ID : A_AC3
Duration : 1 h 41 min
Bit rate mode : Constant
Bit rate : 192 kb/s
Channel(s) : 2 channels
Channel layout : L R
Sampling rate : 48.0 kHz
Frame rate : 31.250 FPS (1536 SPF)
Compression mode : Lossy
Stream size : 139 MiB (2%)
Title : Dub [MovieDalen]
Language : Russian
Service kind : Complete Main
Default : Yes
Forced : No

Audio #2
ID : 3
Format : AC-3
Format/Info : Audio Coding 3
Commercial name : Dolby Digital
Codec ID : A_AC3
Duration : 1 h 41 min
Bit rate mode : Constant
Bit rate : 640 kb/s
Channel(s) : 6 channels
Channel layout : L R C LFE Ls Rs
Sampling rate : 48.0 kHz
Frame rate : 31.250 FPS (1536 SPF)
Compression mode : Lossy
Stream size : 464 MiB (6%)
Title : Dub [HotVoice 41]
Language : Russian
Service kind : Complete Main
Default : No
Forced : No

Audio #3
ID : 4
Format : AC-3
Format/Info : Audio Coding 3
Commercial name : Dolby Digital
Codec ID : A_AC3
Duration : 1 h 41 min
Bit rate mode : Constant
Bit rate : 256 kb/s
Channel(s) : 2 channels
Channel layout : L R
Sampling rate : 48.0 kHz
Frame rate : 31.250 FPS (1536 SPF)
Compression mode : Lossy
Stream size : 186 MiB (3%)
Title : MVO [TVShows]
Language : Russian
Service kind : Complete Main
Default : No
Forced : No

Audio #4
ID : 5
Format : E-AC-3
Format/Info : Enhanced AC-3
Commercial name : Dolby Digital Plus
Codec ID : A_EAC3
Duration : 1 h 41 min
Bit rate mode : Constant
Bit rate : 256 kb/s
Channel(s) : 6 channels
Channel layout : L R C LFE Ls Rs
Sampling rate : 48.0 kHz
Frame rate : 31.250 FPS (1536 SPF)
Compression mode : Lossy
Stream size : 186 MiB (3%)
Title : Dub
Language : Ukrainian
Service kind : Complete Main
Default : No
Forced : No

Audio #5
ID : 6
Format : AC-3
Format/Info : Audio Coding 3
Commercial name : Dolby Digital
Codec ID : A_AC3
Duration : 1 h 41 min
Bit rate mode : Constant
Bit rate : 640 kb/s
Channel(s) : 6 channels
Channel layout : L R C LFE Ls Rs
Sampling rate : 48.0 kHz
Frame rate : 31.250 FPS (1536 SPF)
Compression mode : Lossy
Stream size : 464 MiB (6%)
Title : Original
Language : English
Service kind : Complete Main
Default : No
Forced : No

Text #1
ID : 7
Format : UTF-8
Codec ID : S_TEXT/UTF8
Codec ID/Info : UTF-8 Plain Text
Duration : 1 h 25 min
Bit rate : 1 b/s
Frame rate : 0.004 FPS
Count of elements : 23
Stream size : 779 Bytes (0%)
Title : Forced
Language : Russian
Default : Yes
Forced : No

Text #2
ID : 8
Format : UTF-8
Codec ID : S_TEXT/UTF8
Codec ID/Info : UTF-8 Plain Text
Duration : 1 h 28 min
Bit rate : 81 b/s
Frame rate : 0.225 FPS
Count of elements : 1197
Stream size : 52.5 KiB (0%)
Title : Full
Language : Russian
Default : No
Forced : No

Text #3
ID : 9
Format : UTF-8
Codec ID : S_TEXT/UTF8
Codec ID/Info : UTF-8 Plain Text
Duration : 1 h 25 min
Bit rate : 0 b/s
Frame rate : 0.003 FPS
Count of elements : 17
Stream size : 575 Bytes (0%)
Title : Forced
Language : Ukrainian
Default : No
Forced : No

Text #4
ID : 10
Format : UTF-8
Codec ID : S_TEXT/UTF8
Codec ID/Info : UTF-8 Plain Text
Duration : 1 h 39 min
Bit rate : 81 b/s
Frame rate : 0.210 FPS
Count of elements : 1253
Stream size : 59.1 KiB (0%)
Title : Full
Language : Ukrainian
Default : No
Forced : No

Text #5
ID : 11
Format : UTF-8
Codec ID : S_TEXT/UTF8
Codec ID/Info : UTF-8 Plain Text
Duration : 1 h 32 min
Bit rate : 52 b/s
Frame rate : 0.220 FPS
Count of elements : 1224
Stream size : 35.3 KiB (0%)
Title : Full
Language : English
Default : No
Forced : No

Text #6
ID : 12
Format : UTF-8
Codec ID : S_TEXT/UTF8
Codec ID/Info : UTF-8 Plain Text
Duration : 1 h 38 min
Bit rate : 68 b/s
Frame rate : 0.335 FPS
Count of elements : 1976
Stream size : 49.6 KiB (0%)
Title : SDH
Language : English
Default : No
Forced : No

Menu
00:00:00.000 : en:Chapter 01
00:08:16.162 : en:Chapter 02
00:11:11.170 : en:Chapter 03
00:14:24.572 : en:Chapter 04
00:18:14.385 : en:Chapter 05
00:21:24.741 : en:Chapter 06
00:22:54.915 : en:Chapter 07
00:25:24.231 : en:Chapter 08
00:26:11.194 : en:Chapter 09
00:31:29.220 : en:Chapter 10
00:32:33.368 : en:Chapter 11
00:35:54.235 : en:Chapter 12
00:38:32.018 : en:Chapter 13
00:42:43.185 : en:Chapter 14
00:47:12.120 : en:Chapter 15
00:51:35.634 : en:Chapter 16
00:58:51.527 : en:Chapter 17
01:02:46.262 : en:Chapter 18
01:05:08.571 : en:Chapter 19
01:09:46.015 : en:Chapter 20
01:13:47.589 : en:Chapter 21
01:18:00.592 : en:Chapter 22
01:19:22.257 : en:Chapter 23
01:24:23.266 : en:Chapter 24
01:28:28.511 : en:Chapter 25
01:31:37.825 : en:Chapter 26
01:33:51.875 : en:Chapter 27

Другие фильмы
У данной публикации пока нет комментариев.
Будь первым, оставь своё мнение в комментариях!
Информация
Посетители, находящиеся в группе Гости, не могут оставлять комментарии к данной публикации.
Самый популярный релиз недели
Донаты
Мы в соц. сетях / RSS

Лучшие релизы месяца
Лучшие SD недели
Лучшие 720p недели
Лучшие 1080p недели
Лучшие 4K недели
Вы недавно смотрели
Реклама
Последние комментарии
...

Tony1984

Сегодня, 14:36

...

bolonka123

Вчера, 10:05

...

Sergunka

17 апреля 2024 23:31

...

-=DoMiNo=-

17 апреля 2024 13:52

...

bolonka123

17 апреля 2024 11:43

Реклама