+12

Нефариус / Nefarious (2023) BDRip 720p от DoMiNo & селезень | D, P

Информация о фильме
Название: Нефариус
Оригинальное название: Nefarious
Год выпуска: 2023
Жанр: Ужасы, триллер
Режиссер: Чак Конзелман / Chuck Konzelman, Кэри Соломон / Cary Solomon
В ролях: Шон Патрик Флэнери, Джордан Бэлфи, Джеймс Хили мл., Роберт Питерс, Камерон Арнетт, Стелио Саванте, Том Омер, Эрик Хэнсон, Сара Эрнандез, Джаррет ЛеМастер, Ди Эн Эй, Марк Де Алессандро, Джон Канн, Дэниэл Мартин Берки

О фильме:
Успешный психиатр Джеймс допрашивает в тюрьме серийного убийцу, осуждённого на казнь. Заключённый уверяет, что он – демон, захвативший тело обычного человека. Кроме того, ему многое известно о личных тайнах самого доктора. Звезда «Святых из трущоб» Шон Патрик Флэнери в камерном триллере о разговоре-поединке со злом.

Выпущено: США, Believe Entertainment (II)
Продолжительность: 01:37:31
Перевод 1: Дублированный | Футурум
Перевод 2: Профессиональный (многоголосый, закадровый) | Jaskier
Перевод 3: Профессиональный (многоголосый, закадровый) | TVShows
Субтитры: Русские (SDH), Английские

Файл
Формат: Matroska
Качество: BDRip 720p
Видео: 1280x536 at 23.976 fps, [email protected], ~4162 kbps
Аудио 1: AC3, 2 ch, ~256 kbps - | Русский | Нефариус / Nefarious (2023) BDRip 720p от DoMiNo & селезень | D, P | Футурум
Аудио 2: AC3, 2 ch, ~192 kbps - | Русский | | Jaskier
Аудио 3: AC3, 2 ch, ~192 kbps - | Русский | | TVShows
Аудио 4: AC3, 6 ch, ~448 kbps - | Английский | | Original
Формат субтитров: softsub (SRT)

Авторизуйтесь для получения доступа к скачиванию

Нет аккаунта? Регистрация открыта и займёт меньше минуты

Вход Регистрация

x264 [info]: frame I: 1026 Avg QP: 13.52 size: 93890
x264 [info]: frame P: 24554 Avg QP: 14.87 size: 34707
x264 [info]: frame B: 114706 Avg QP: 16.27 size: 18267

General
Unique ID: 248419566040732339025025358170135715000 (0xBAE3DE3BDD3249C26D83297455BBDCB8)
Complete name: S: Nefarious.2023.DUB.BDRip.720p.x264.seleZen.mkv
Format: Matroska
Format version: Version 4
File size: 3.58 GiB
Duration: 1 h 37 min
Overall bit rate: 5 253 kb/s
Frame rate: 23.976 FPS
Movie name: Nefarious.2023.DUB.BDRip.720p.x264.seleZen
Encoded date: 04.12.2023 07:01:25 UTC
Writing application: mkvmerge v81.0 ('Milliontown') 64-bit
Writing library: libebml v1.4.4 + libmatroska v1.7.1
Cover: Yes
Attachments: cover.jpg / small_cover.jpg

Video
ID: 1
Format: AVC
Format/Info: Advanced Video Codec
Format profile: [email protected]
Format settings: CABAC / 12 Ref Frames
Format settings, CABAC: Yes
Format settings, Reference: 12 frames
Codec ID: V_MPEG4/ISO/AVC
Duration: 1 h 37 min
Bit rate: 4 162 kb/s
Width: 1 280 pixels
Height: 536 pixels
Display aspect ratio: 2.40:1
Frame rate mode: Constant
Frame rate: 23.976 (24000/1001) FPS
Color space: YUV
Chroma subsampling: 4:2:0
Bit depth: 8 bits
Scan type: Progressive
Bits/(Pixel*Frame): 0.253
Stream size: 2.83 GiB (79%)
Title: -=DoMiNo=-
Writing library: x264 core 164 r3107+58M ae98796 t_mod_New | by -=DoMiNo=- | X86_64]
Encoding settings: cabac=1 / ref=12 / deblock=1:-2:-2 / analyse=0×3:0×133 / me=umh / subme=10 / psy=1 / fade_compensate=0.00 / psy_rd=1.05:0.00 / mixed_ref=1 / me_range=32 / chroma_me=1 / trellis=2 / 8×8dct=1 / cqm=0 / deadzone=21,11 / fast_pskip=0 / chroma_qp_offset=-2 / threads=17 / lookahead_threads=4 / sliced_threads=0 / nr=0 / decimate=1 / interlaced=0 / bluray_compat=0 / constrained_intra=0 / fgo=0 / bframes=12 / b_pyramid=2 / b_adapt=2 / b_bias=0 / direct=3 / weightb=1 / open_gop=0 / weightp=2 / keyint=240 / keyint_min=23 / scenecut=40 / intra_refresh=0 / rc_lookahead=60 / rc=crf / mbtree=0 / crf=18.0000 / qcomp=0.70 / qpmin=0:0:0 / qpmax=69:69:69 / qpstep=4 / vbv_maxrate=50000 / vbv_bufsize=62500 / crf_max=0.0 / nal_hrd=none / filler=0 / ip_ratio=1.35 / pb_ratio=1.20 / aq=3:0.90 / aq-sensitivity=10.00 / aq-factor=1.00:1.00:1.00:1.00 / aq2=0 / aq3=0
Language: English
Default: Yes
Forced: No
Color range: Limited
Color primaries: BT.709
Transfer characteristics: BT.709
Matrix coefficients: BT.709

Audio #1
ID: 2
Format: AC-3
Format/Info: Audio Coding 3
Commercial name: Dolby Digital
Codec ID: A_AC3
Duration: 1 h 37 min
Bit rate mode: Constant
Bit rate: 256 kb/s
Channel (s): 2 channels
Channel layout: L R
Sampling rate: 48.0 kHz
Frame rate: 31.250 FPS (1536 SPF)
Compression mode: Lossy
Stream size: 178 MiB (5%)
Title: Дублированный | Футурум
Language: Russian
Service kind: Complete Main
Default: Yes
Forced: No

Audio #2
ID: 3
Format: AC-3
Format/Info: Audio Coding 3
Commercial name: Dolby Digital
Codec ID: A_AC3
Duration: 1 h 37 min
Bit rate mode: Constant
Bit rate: 192 kb/s
Channel (s): 2 channels
Channel layout: L R
Sampling rate: 48.0 kHz
Frame rate: 31.250 FPS (1536 SPF)
Compression mode: Lossy
Stream size: 134 MiB (4%)
Title: Jaskier
Language: Russian
Service kind: Complete Main
Default: No
Forced: No

Audio #3
ID: 4
Format: AC-3
Format/Info: Audio Coding 3
Commercial name: Dolby Digital
Codec ID: A_AC3
Duration: 1 h 37 min
Bit rate mode: Constant
Bit rate: 192 kb/s
Channel (s): 2 channels
Channel layout: L R
Sampling rate: 48.0 kHz
Frame rate: 31.250 FPS (1536 SPF)
Compression mode: Lossy
Stream size: 134 MiB (4%)
Title: TVShows
Language: Russian
Service kind: Complete Main
Default: No
Forced: No

Audio #4
ID: 5
Format: AC-3
Format/Info: Audio Coding 3
Commercial name: Dolby Digital
Codec ID: A_AC3
Duration: 1 h 37 min
Bit rate mode: Constant
Bit rate: 448 kb/s
Channel (s): 6 channels
Channel layout: L R C LFE Ls Rs
Sampling rate: 48.0 kHz
Frame rate: 31.250 FPS (1536 SPF)
Compression mode: Lossy
Stream size: 312 MiB (9%)
Title: Original
Language: English
Service kind: Complete Main
Default: No
Forced: No

Text #1
ID: 6
Format: UTF-8
Codec ID: S_TEXT/UTF8
Codec ID/Info: UTF-8 Plain Text
Duration: 1 h 32 min
Bit rate: 120 b/s
Frame rate: 0.301 FPS
Count of elements: 1677
Stream size: 82.0 KiB (0%)
Title: SDH
Language: Russian
Default: No
Forced: No

Text #2
ID: 7
Format: UTF-8
Codec ID: S_TEXT/UTF8
Codec ID/Info: UTF-8 Plain Text
Duration: 1 h 30 min
Bit rate: 76 b/s
Frame rate: 0.307 FPS
Count of elements: 1673
Stream size: 50.7 KiB (0%)
Title: Full
Language: English
Default: No
Forced: No

Menu
00:00:00.000: en: Chapter 01
00:02:11.297: en: Chapter 02
00:18:49.670: en: Chapter 03
00:30:43.424: en: Chapter 04
00:45:13.585: en: Chapter 05
00:50:15.846: en: Chapter 06
01:04:01.087: en: Chapter 07
01:10:44.156: en: Chapter 08
01:19:06.992: en: Chapter 09
01:25:52.897: en: Chapter 10
01:33:27.518: en: Chapter 11

Другие фильмы
У данной публикации пока нет комментариев.
Будь первым, оставь своё мнение в комментариях!
Информация
Посетители, находящиеся в группе Гости, не могут оставлять комментарии к данной публикации.
Самый популярный релиз недели
Донаты
Мы в соц. сетях / RSS

Лучшие релизы месяца
Лучшие SD недели
Лучшие 720p недели
Лучшие 1080p недели
Лучшие 4K недели
Вы недавно смотрели
Реклама
Последние комментарии
...

zik77

2 марта 2024 07:26

...

korelov

23 февраля 2024 14:35

...

Desol

21 февраля 2024 00:28

...

diabloq

20 февраля 2024 14:17

...

slightlymad

17 февраля 2024 21:01

Реклама