+26

Основание / Foundation [S02] (2023) WEB-DLRip-AVC от DoMiNo & селезень | Невафильм

Информация о фильме
Название: Основание
Оригинальное название: Foundation
Год выхода: 2021-2023
Жанр: фантастика, драма
Режиссёр: Руперт Сандерс, Эндрю Бернштейн, Алекс Грейвз, Роксанн Доусон, Дженнифер Фанг
В ролях: Джаред Харрис, Ли Пейс, Лу Льобелл, Леа Фергюсон, Лаура Бирн, Кассиан Билтон, Терренс Манн, Дэниэл МакФерсон, Т’Ниа Миллер, Парвеш Рана, Кюбра Саит, Никхил Пармар, Кларк Питерс, Мидо Хамада

Описание:
Основано на цикле романов Айзека Азимова. Гэри Селдон — учёный, ставший основоположником новой науки, психоистории, лежащей на стыке математики, истории и психологии. Она позволяет с помощью специальных уравнений высчитать, когда и с какой вероятностью произойдёт то или иное событие. Так, по расчётам Селдона, Галактическую империю ждёт скорый крах, за которым последуют тысячи лет упадка. Имперские чиновники не рады такому прогнозу и отсылают неудобного учёного и его последователей на отдалённую необитаемую планету Терминус на задворках Млечного пути. Тогда Селдон создаёт организацию «Основание», которой предстоит спасти человечество и возродить цивилизацию после катастрофы.

Страна: США
Студия: Skydance Television, Latina Pictures, Wild Atlantic Pictures
Продолжительность: ~01:00:00 серия
Перевод: Профессиональный (дублированный) Невафильм по заказу Apple TV+
Субтитры: Русские (Forced, Full, SDH), английские (Full, SDH), иврит, украинские

Файл
Формат: Matroska
Качество: WEB-DLRip-AVC
Видео: 1024x426 at 23.976 fps, [email protected], ~1591 kbps
Аудио: AC3, 6 ch, ~448 kbps - | Русский | Основание / Foundation [S02] (2023) WEB-DLRip-AVC от DoMiNo & селезень | Невафильм
Формат субтитров: softsub (SRT)

Авторизуйтесь для получения доступа к скачиванию

Нет аккаунта? Регистрация открыта и займёт меньше минуты

Вход Регистрация

General
Unique ID : 189306730336310868670332640316165608001 (0x8E6B266A8540737A44034A21CF3E5241)
Complete name : E:Foundation.S02E02.A.Glimpse.of.Darkness.WEB-DLRip.x264.seleZen.mkv
Format : Matroska
Format version : Version 4
File size : 787 MiB
Duration : 53 min 52 s
Overall bit rate : 2 042 kb/s
Frame rate : 23.976 FPS
Movie name : seleZen
Encoded date : 2023-09-03 10:19:16 UTC
Writing application : mkvmerge v79.0 ('Funeral Pyres') 64-bit
Writing library : libebml v1.4.4 + libmatroska v1.7.1
Cover : Yes
Attachments : cover.jpg / small_cover.jpg

Video
ID : 1
Format : AVC
Format/Info : Advanced Video Codec
Format profile : [email protected]
Format settings : CABAC / 10 Ref Frames
Format settings, CABAC : Yes
Format settings, Reference : 10 frames
Codec ID : V_MPEG4/ISO/AVC
Duration : 53 min 52 s
Bit rate : 1 591 kb/s
Width : 1 024 pixels
Height : 426 pixels
Display aspect ratio : 2.40:1
Frame rate mode : Constant
Frame rate : 23.976 (24000/1001) FPS
Color space : YUV
Chroma subsampling : 4:2:0
Bit depth : 8 bits
Scan type : Progressive
Bits/(Pixel*Frame) : 0.152
Stream size : 613 MiB (78%)
Title : -=DoMiNo=-
Writing library : x264 core 164 r3107+58M ae98796 t_mod_New | by -=DoMiNo=- | X86_64]
Encoding settings : cabac=1 / ref=10 / deblock=1:-2:-1 / analyse=0x3:0x133 / me=umh / subme=10 / psy=1 / fade_compensate=0.00 / psy_rd=1.05:0.15 / mixed_ref=1 / me_range=32 / chroma_me=1 / trellis=2 / 8x8dct=1 / cqm=0 / deadzone=21,11 / fast_pskip=0 / chroma_qp_offset=-3 / threads=16 / lookahead_threads=3 / sliced_threads=0 / nr=0 / decimate=0 / interlaced=0 / bluray_compat=0 / constrained_intra=0 / fgo=0 / bframes=12 / b_pyramid=2 / b_adapt=2 / b_bias=0 / direct=1 / weightb=1 / open_gop=0 / weightp=2 / keyint=250 / keyint_min=23 / scenecut=40 / intra_refresh=0 / rc_lookahead=60 / rc=crf / mbtree=0 / crf=18.5000 / qcomp=0.70 / qpmin=0:0:0 / qpmax=69:69:69 / qpstep=4 / vbv_maxrate=50000 / vbv_bufsize=62500 / crf_max=0.0 / nal_hrd=none / filler=0 / ip_ratio=1.25 / pb_ratio=1.30 / aq=1:0.90 / aq-sensitivity=10.00 / aq-factor=1.00:1.00:1.00 / aq2=0 / aq3=0
Language : English
Default : Yes
Forced : No
Color range : Limited
Color primaries : BT.709
Transfer characteristics : BT.709
Matrix coefficients : BT.709

Audio
ID : 2
Format : AC-3
Format/Info : Audio Coding 3
Commercial name : Dolby Digital
Codec ID : A_AC3
Duration : 53 min 52 s
Bit rate mode : Constant
Bit rate : 448 kb/s
Channel(s) : 6 channels
Channel layout : L R C LFE Ls Rs
Sampling rate : 48.0 kHz
Frame rate : 31.250 FPS (1536 SPF)
Compression mode : Lossy
Stream size : 173 MiB (22%)
Title : Невафильм
Language : Russian
Service kind : Complete Main
Default : Yes
Forced : No

Text #1
ID : 3
Format : UTF-8
Codec ID : S_TEXT/UTF8
Codec ID/Info : UTF-8 Plain Text
Duration : 49 min 18 s
Bit rate : 1 b/s
Frame rate : 0.005 FPS
Count of elements : 16
Stream size : 625 Bytes (0%)
Title : Forced
Language : Russian
Default : Yes
Forced : No

Text #2
ID : 4
Format : UTF-8
Codec ID : S_TEXT/UTF8
Codec ID/Info : UTF-8 Plain Text
Duration : 52 min 41 s
Bit rate : 92 b/s
Frame rate : 0.214 FPS
Count of elements : 678
Stream size : 35.9 KiB (0%)
Language : Russian
Default : No
Forced : No

Text #3
ID : 5
Format : UTF-8
Codec ID : S_TEXT/UTF8
Codec ID/Info : UTF-8 Plain Text
Duration : 51 min 37 s
Bit rate : 108 b/s
Frame rate : 0.250 FPS
Count of elements : 774
Stream size : 41.1 KiB (0%)
Title : SDH
Language : Russian
Default : No
Forced : No

Text #4
ID : 6
Format : UTF-8
Codec ID : S_TEXT/UTF8
Codec ID/Info : UTF-8 Plain Text
Duration : 14 min 23 s
Bit rate : 1 b/s
Frame rate : 0.008 FPS
Count of elements : 7
Stream size : 209 Bytes (0%)
Title : Forced
Language : English
Default : No
Forced : No

Text #5
ID : 7
Format : UTF-8
Codec ID : S_TEXT/UTF8
Codec ID/Info : UTF-8 Plain Text
Duration : 51 min 6 s
Bit rate : 65 b/s
Frame rate : 0.220 FPS
Count of elements : 675
Stream size : 24.6 KiB (0%)
Language : English
Default : No
Forced : No

Text #6
ID : 8
Format : UTF-8
Codec ID : S_TEXT/UTF8
Codec ID/Info : UTF-8 Plain Text
Duration : 51 min 6 s
Bit rate : 74 b/s
Frame rate : 0.253 FPS
Count of elements : 775
Stream size : 27.9 KiB (0%)
Title : SDH
Language : English
Default : No
Forced : No

Text #7
ID : 9
Format : UTF-8
Codec ID : S_TEXT/UTF8
Codec ID/Info : UTF-8 Plain Text
Duration : 52 min 41 s
Bit rate : 86 b/s
Frame rate : 0.216 FPS
Count of elements : 683
Stream size : 33.4 KiB (0%)
Language : Hebrew
Default : No
Forced : No

Text #8
ID : 10
Format : UTF-8
Codec ID : S_TEXT/UTF8
Codec ID/Info : UTF-8 Plain Text
Duration : 52 min 41 s
Bit rate : 103 b/s
Frame rate : 0.217 FPS
Count of elements : 685
Stream size : 40.0 KiB (0%)
Language : Ukrainian
Default : No
Forced : No

Другие фильмы
Комментарии:

...
supermehanik 15 сентября 2023 20:55
0

Большое спасибо !!!

Информация
Посетители, находящиеся в группе Гости, не могут оставлять комментарии к данной публикации.
Самый популярный релиз недели
Донаты
Мы в соц. сетях / RSS

Лучшие релизы месяца
Лучшие SD недели
Лучшие 720p недели
Лучшие 1080p недели
Лучшие 4K недели
Вы недавно смотрели
Реклама
Последние комментарии
...

Al1ksandr

21 июня 2024 21:02

...

Bonzo

14 июня 2024 14:52

...

rmzshka

13 июня 2024 17:48

...

rmzshka

13 июня 2024 12:24

...

LisNick

13 июня 2024 08:45

Реклама