+22

Асока / Ahsoka [S01] (2023) WEB-DLRip-AVC от DoMiNo & селезень | D | Red Head Sound

Информация о фильме
Название: Асока
Оригинальное название: Ahsoka
Год выхода: 2023
Жанр: фантастика, фэнтези, боевик, драма, приключения
Режиссёр: Дэйв Филони, Стеф Грин, Рик Фамуйива
В ролях: Розарио Доусон, Наташа Лю Бордиццо, Уэс Чэтэм, Ларс Миккельсен, Хейден Кристенсен, Дэвид Теннант, Мэри Элизабет Уинстэд, Рэй Стивенсон, Иванна Сахно, Темуэра Моррисон и другие

О фильме:
Асока Тано — первая мультипликационная героиня вселенной «Звездных войн», получившая собственный сольный проект. Сериал «Асока» разрабатывал знаток далекой-далекой Галактики Дэйв Филони. Уже 20 лет он рассказывает историю этой отважной тогруты, которая прошла путь от дерзкого падавана Энакина Скайуокера до разочаровавшегося в Ордене джедаев одиночки. В «Асоке» вас ждут захватывающие приключения не только титульной героини, но и двух других сильных женщин — Сабины Врен (Наташа Лю Бордиццо) и Геры Синдуллы (Мэри Элизабет Уинстэд). По традиции, в сериале много крутых боев на световых мечах, закулисных интриг, живописных локаций и завлекающей в этот мир музыки. «Асока» заочно считается пятым сезоном и прямым продолжением «Повстанцев», но написана так, что, даже если вы не видели ни одного эпизода мультсериалов, то поймете, о чем речь, и увлечетесь этим действом.

После краха Империи к власти в Галактике приходит Новая Республика, но далеко не все радуются этому. Асока Тано (Розарио Доусон) — одна из таких разочаровавшихся отшельников, которая старается держаться подальше от любой связанной с Силой структуры. Тем не менее, когда Тано ловит бывшую союзницу считавшегося погибшим имперского гранд-адмирала Трауна (Ларс Миккельсен) и узнает, что остатки противников разыскивают его, она начинает работать на Новую Республику. Соглашается она на это, потому что не может позволить чахлым силам Империи вновь возродиться. Кроме того, в ней теплится надежда, что раз Траун жив, живым может оказаться и ее давний друг и сослуживец Эзра Бриджер (Эман Эсфанди). Но чтобы найти обоих пропавших, ей нужно расшифровать карту, и для этого Асока обращается к бывшей ученице, обиженной на нее Сабинк Врен (Наташа Лю Бордиццо). Вместе с ней и Герой Синдуллой Асоке предстоит вернуться во времена Войн клонов и укрепить Новую Республику, иначе хрупкий мир в Галактике может быстро пошатнуться…

Страна: США
Студия: Golem Creations, Lucasfilm Ltd.
Продолжительность: ~00:50:00 серия
Перевод: Дубляж (неофициальный) - Red Head Sound
Субтитры: Русские (Full), Английские (SDH)

Файл
Формат: Matroska
Качество: WEB-DLRip-AVC
Видео: 1024x428 at 24.000 fps, [email protected], ~1305 kbps
Аудио: AC3, 6 ch, ~448 kbps - | Русский | Асока / Ahsoka [S01] (2023) WEB-DLRip-AVC от DoMiNo & селезень | D | Red Head Sound
Формат субтитров: softsub (SRT)

Авторизуйтесь для получения доступа к скачиванию

Нет аккаунта? Регистрация открыта и займёт меньше минуты

Вход Регистрация

General
Unique ID : 251127698469731208599438590089763241762 (0xBCED6F78A7884AB2711EC7F6B6543F22)
Complete name : E:Ahsoka.2023.RHS.S01.WEB-DLRip.x264.seleZenAhsoka.S01E01.WEB-DLRip.x264.seleZen.mkv
Format : Matroska
Format version : Version 4
File size : 687 MiB
Duration : 54 min 43 s
Overall bit rate : 1 756 kb/s
Frame rate : 24.000 FPS
Movie name : seleZen
Encoded date : 2023-09-04 14:17:05 UTC
Writing application : mkvmerge v79.0 ('Funeral Pyres') 64-bit
Writing library : libebml v1.4.4 + libmatroska v1.7.1
Cover : Yes
Attachments : cover.jpg / small_cover.jpg

Video
ID : 1
Format : AVC
Format/Info : Advanced Video Codec
Format profile : [email protected]
Format settings : CABAC / 10 Ref Frames
Format settings, CABAC : Yes
Format settings, Reference : 10 frames
Codec ID : V_MPEG4/ISO/AVC
Duration : 54 min 43 s
Bit rate : 1 305 kb/s
Width : 1 024 pixels
Height : 428 pixels
Display aspect ratio : 2.40:1
Frame rate mode : Constant
Frame rate : 24.000 FPS
Color space : YUV
Chroma subsampling : 4:2:0
Bit depth : 8 bits
Scan type : Progressive
Bits/(Pixel*Frame) : 0.124
Stream size : 511 MiB (74%)
Title : -=DoMiNo=-
Writing library : x264 core 164 r3107+58M ae98796 t_mod_New | by -=DoMiNo=- | X86_64]
Encoding settings : cabac=1 / ref=10 / deblock=1:-2:-1 / analyse=0x3:0x133 / me=umh / subme=10 / psy=1 / fade_compensate=0.00 / psy_rd=1.05:0.15 / mixed_ref=1 / me_range=32 / chroma_me=1 / trellis=2 / 8x8dct=1 / cqm=0 / deadzone=21,11 / fast_pskip=0 / chroma_qp_offset=-3 / threads=16 / lookahead_threads=3 / sliced_threads=0 / nr=0 / decimate=0 / interlaced=0 / bluray_compat=0 / constrained_intra=0 / fgo=0 / bframes=10 / b_pyramid=2 / b_adapt=2 / b_bias=0 / direct=1 / weightb=1 / open_gop=0 / weightp=2 / keyint=240 / keyint_min=24 / scenecut=40 / intra_refresh=0 / rc_lookahead=60 / rc=crf / mbtree=0 / crf=18.0000 / qcomp=0.70 / qpmin=0:0:0 / qpmax=69:69:69 / qpstep=4 / vbv_maxrate=50000 / vbv_bufsize=62500 / crf_max=0.0 / nal_hrd=none / filler=0 / ip_ratio=1.30 / pb_ratio=1.25 / aq=1:0.90 / aq-sensitivity=10.00 / aq-factor=1.00:1.00:1.00 / aq2=0 / aq3=0
Language : English
Default : Yes
Forced : No
Color range : Limited
Color primaries : BT.709
Transfer characteristics : BT.709
Matrix coefficients : BT.709

Audio
ID : 2
Format : AC-3
Format/Info : Audio Coding 3
Commercial name : Dolby Digital
Codec ID : A_AC3
Duration : 54 min 43 s
Bit rate mode : Constant
Bit rate : 448 kb/s
Channel(s) : 6 channels
Channel layout : L R C LFE Ls Rs
Sampling rate : 48.0 kHz
Frame rate : 31.250 FPS (1536 SPF)
Compression mode : Lossy
Stream size : 175 MiB (26%)
Title : Red Head Sound
Language : Russian
Service kind : Complete Main
Default : Yes
Forced : No

Text #1
ID : 3
Format : UTF-8
Codec ID : S_TEXT/UTF8
Codec ID/Info : UTF-8 Plain Text
Duration : 50 min 28 s
Bit rate : 51 b/s
Frame rate : 0.121 FPS
Count of elements : 367
Stream size : 19.2 KiB (0%)
Language : Russian
Default : No
Forced : No

Text #2
ID : 4
Format : UTF-8
Codec ID : S_TEXT/UTF8
Codec ID/Info : UTF-8 Plain Text
Duration : 51 min 2 s
Bit rate : 37 b/s
Frame rate : 0.166 FPS
Count of elements : 509
Stream size : 13.9 KiB (0%)
Language : English
Default : No
Forced : No

Другие фильмы
Комментарии:

...
exec00t 10 октября 2023 08:13
0

Спасибо за релиз. Одна маленькая просьба. Перестаньте пожалуйста делать так:

Movie name : seleZen

Каждая серия так называется. По DNLA плеер телика берет именно это название, а не название файла. У меня все серии с одним названием. Это не удобно!

Информация
Посетители, находящиеся в группе Гости, не могут оставлять комментарии к данной публикации.
Самый популярный релиз недели
Донаты
Мы в соц. сетях / RSS

Лучшие релизы месяца
Лучшие SD недели
Лучшие 720p недели
Лучшие 1080p недели
Лучшие 4K недели
Вы недавно смотрели
Реклама
Последние комментарии
...

Al1ksandr

21 июня 2024 21:02

...

Bonzo

14 июня 2024 14:52

...

rmzshka

13 июня 2024 17:48

...

rmzshka

13 июня 2024 12:24

...

LisNick

13 июня 2024 08:45

Реклама