+16

Черепашки-ниндзя: Погром мутантов / Teenage Mutant Ninja Turtles: Mutant Mayhem (2023) BDRip 720p от DoMiNo & селезень | D, P

Информация о фильме
Название: Черепашки-ниндзя: Погром мутантов
Оригинальное название: Teenage Mutant Ninja Turtles: Mutant Mayhem
Жанр: мультфильм, фантастика, фэнтези, боевик, комедия, приключения, семейный
Год выпуска: 2023
Режиссер: Джефф Роу, Кайлер Спирс / Jeff Rowe, Kyler Spears
Роли озвучивали: Мика Эбби, Шэймон Браун мл., Николас Канту, Брэйди Нун, Айо Эдебири, Майя Рудольф, Джон Сина, Сет Роген, Роуз Бирн, Натасия Деметриу, Джанкарло Эспозито, Джеки Чан, Айс Кьюб, Пол Радд, Post Malone

Описание:
Четверо братьев-черепах, всю жизнь скрывавшихся от мира людей в канализациях Нью-Йорка и обучавшихся ниндзюцу, отправляются на поверхность и пытаются жить как нормальные подростки. С помощью своей новой подруги Эйприл О’Нил они выходят на след печально известного преступного синдиката и армии мутантов.

Страна: США, Япония, Канада
Студия: Nickelodeon Movies, Point Grey Pictures, Paramount Pictures
Бюджет: $70 000 000
Продолжительность: 01:39:19
Перевод 1: Профессиональный (полное дублирование) | Videofilm Ltd.
Перевод 2: Профессиональный (многоголосый, закадровый) | Jaskier
Перевод 3: Профессиональный (многоголосый, закадровый) | TVShows
[Субтитры: Русские (Forced, Full), Английские (Full, SDH)

Файл
Формат: Matroska
Качество: BDRip 720p [исх.Teenage.Mutant.Ninja.Turtles.Mutant.Mayhem.2023.1080p.BluRay.REMUX.AVC.Atmos-TRiToN]
Видео: 1280x536 at 23.976 fps, [email protected], ~4327 kbps
Аудио 1: AC3, 6 ch, ~384 kbps - | Русский | Черепашки-ниндзя: Погром мутантов / Teenage Mutant Ninja Turtles: Mutant Mayhem (2023) BDRip 720p от DoMiNo & селезень | D, P | DUB | Videofilm Ltd.
Аудио 2: AC3, 6 ch, ~384 kbps - | Русский | | MVO | Jaskier
Аудио 3: AC3, 6 ch, ~384 kbps - | Русский | | MVO | TVShows
Аудио 4: AC3, 6 ch, ~640 kbps - | Английский | | Original
Формат субтитров: softsub (SRT)

Авторизуйтесь для получения доступа к скачиванию

Нет аккаунта? Регистрация открыта и займёт меньше минуты

Вход Регистрация

General
Unique ID : 194212769165394931240318951738474341541 (0x921C04CE3A8B2504F5E20BFDAFE1A4A5)
Complete name : S:Teenage.Mutant.Ninja.Turtles.Mutant.Mayhem.2023.BDRip.720p.x264.seleZen.mkv
Format : Matroska
Format version : Version 4
File size : 4.25 GiB
Duration : 1 h 39 min
Overall bit rate : 6 110 kb/s
Frame rate : 23.976 FPS
Movie name : Teenage.Mutant.Ninja.Turtles.Mutant.Mayhem.2023.BDRip.720p.x264.seleZen
Encoded date : 2023-11-17 21:13:57 UTC
Writing application : mkvmerge v80.0 ('Roundabout') 64-bit
Writing library : libebml v1.4.4 + libmatroska v1.7.1
Cover : Yes
Attachments : cover.jpg / small_cover.jpg

Video
ID : 1
Format : AVC
Format/Info : Advanced Video Codec
Format profile : [email protected]
Format settings : CABAC / 12 Ref Frames
Format settings, CABAC : Yes
Format settings, Reference : 12 frames
Codec ID : V_MPEG4/ISO/AVC
Duration : 1 h 39 min
Bit rate : 4 327 kb/s
Width : 1 280 pixels
Height : 536 pixels
Display aspect ratio : 2.40:1
Frame rate mode : Constant
Frame rate : 23.976 (24000/1001) FPS
Color space : YUV
Chroma subsampling : 4:2:0
Bit depth : 8 bits
Scan type : Progressive
Bits/(Pixel*Frame) : 0.263
Stream size : 3.00 GiB (71%)
Title : -=DoMiNo=-
Writing library : x264 core 164 r3164 _DoMiNo
Encoding settings : cabac=1 / ref=12 / deblock=1:-2:-2 / analyse=0x3:0x133 / me=umh / subme=10 / psy=1 / psy_rd=1.03:0.05 / mixed_ref=1 / me_range=32 / chroma_me=1 / trellis=2 / 8x8dct=1 / cqm=0 / deadzone=21,11 / fast_pskip=0 / chroma_qp_offset=-3 / threads=17 / lookahead_threads=4 / sliced_threads=0 / nr=0 / decimate=0 / interlaced=0 / bluray_compat=0 / constrained_intra=0 / bframes=10 / b_pyramid=2 / b_adapt=2 / b_bias=0 / direct=3 / weightb=1 / open_gop=0 / weightp=2 / keyint=250 / keyint_min=23 / scenecut=40 / intra_refresh=0 / rc_lookahead=60 / rc=crf / mbtree=0 / crf=16.8 / qcomp=0.60 / qpmin=0 / qpmax=69 / qpstep=4 / vbv_maxrate=50000 / vbv_bufsize=62500 / crf_max=0.0 / nal_hrd=none / filler=0 / ip_ratio=1.40 / pb_ratio=1.30 / aq=2:0.90
Language : English
Default : Yes
Forced : No
Color range : Limited
Matrix coefficients : BT.709

Audio #1
ID : 2
Format : AC-3
Format/Info : Audio Coding 3
Commercial name : Dolby Digital
Codec ID : A_AC3
Duration : 1 h 39 min
Bit rate mode : Constant
Bit rate : 384 kb/s
Channel(s) : 6 channels
Channel layout : L R C LFE Ls Rs
Sampling rate : 48.0 kHz
Frame rate : 31.250 FPS (1536 SPF)
Compression mode : Lossy
Stream size : 273 MiB (6%)
Title : Dub -Videofilm Ltd.
Language : Russian
Service kind : Complete Main
Default : Yes
Forced : No

Audio #2
ID : 3
Format : AC-3
Format/Info : Audio Coding 3
Commercial name : Dolby Digital
Codec ID : A_AC3
Duration : 1 h 39 min
Bit rate mode : Constant
Bit rate : 384 kb/s
Channel(s) : 6 channels
Channel layout : L R C LFE Ls Rs
Sampling rate : 48.0 kHz
Frame rate : 31.250 FPS (1536 SPF)
Compression mode : Lossy
Stream size : 273 MiB (6%)
Title : Jaskier
Language : Russian
Service kind : Complete Main
Default : No
Forced : No

Audio #3
ID : 4
Format : AC-3
Format/Info : Audio Coding 3
Commercial name : Dolby Digital
Codec ID : A_AC3
Duration : 1 h 39 min
Bit rate mode : Constant
Bit rate : 384 kb/s
Channel(s) : 6 channels
Channel layout : L R C LFE Ls Rs
Sampling rate : 48.0 kHz
Frame rate : 31.250 FPS (1536 SPF)
Compression mode : Lossy
Stream size : 273 MiB (6%)
Title : TVShows
Language : Russian
Service kind : Complete Main
Default : No
Forced : No

Audio #4
ID : 5
Format : AC-3
Format/Info : Audio Coding 3
Commercial name : Dolby Digital
Codec ID : A_AC3
Duration : 1 h 39 min
Bit rate mode : Constant
Bit rate : 640 kb/s
Channel(s) : 6 channels
Channel layout : L R C LFE Ls Rs
Sampling rate : 48.0 kHz
Frame rate : 31.250 FPS (1536 SPF)
Compression mode : Lossy
Stream size : 455 MiB (10%)
Title : Original
Language : English
Service kind : Complete Main
Default : No
Forced : No

Text #1
ID : 6
Format : UTF-8
Codec ID : S_TEXT/UTF8
Codec ID/Info : UTF-8 Plain Text
Duration : 1 h 34 min
Bit rate : 1 b/s
Frame rate : 0.007 FPS
Count of elements : 37
Stream size : 1.26 KiB (0%)
Title : Forced
Language : Russian
Default : No
Forced : No

Text #2
ID : 7
Format : UTF-8
Codec ID : S_TEXT/UTF8
Codec ID/Info : UTF-8 Plain Text
Duration : 1 h 38 min
Bit rate : 102 b/s
Frame rate : 0.241 FPS
Count of elements : 1428
Stream size : 74.2 KiB (0%)
Title : Full
Language : Russian
Default : No
Forced : No

Text #3
ID : 8
Format : UTF-8
Codec ID : S_TEXT/UTF8
Codec ID/Info : UTF-8 Plain Text
Duration : 1 h 32 min
Bit rate : 81 b/s
Frame rate : 0.290 FPS
Count of elements : 1618
Stream size : 55.5 KiB (0%)
Title : Full
Language : English
Default : No
Forced : No

Text #4
ID : 9
Format : UTF-8
Codec ID : S_TEXT/UTF8
Codec ID/Info : UTF-8 Plain Text
Duration : 1 h 33 min
Bit rate : 93 b/s
Frame rate : 0.345 FPS
Count of elements : 1924
Stream size : 63.8 KiB (0%)
Title : SDH
Language : English
Default : No
Forced : No

Menu
00:00:00.000 : en:Chapter 01
00:04:50.373 : en:Chapter 02
00:11:13.464 : en:Chapter 03
00:17:31.342 : en:Chapter 04
00:26:04.646 : en:Chapter 05
00:33:23.335 : en:Chapter 06
00:43:46.791 : en:Chapter 07
00:53:43.554 : en:Chapter 08
00:58:21.373 : en:Chapter 09
01:06:32.864 : en:Chapter 10
01:14:57.743 : en:Chapter 11
01:21:23.712 : en:Chapter 12
01:26:46.952 : en:Chapter 13
01:29:37.497 : en:Chapter 14

Другие фильмы
У данной публикации пока нет комментариев.
Будь первым, оставь своё мнение в комментариях!
Информация
Посетители, находящиеся в группе Гости, не могут оставлять комментарии к данной публикации.
Самый популярный релиз недели
Донаты
Мы в соц. сетях / RSS

Лучшие релизы месяца
Лучшие SD недели
Лучшие 720p недели
Лучшие 1080p недели
Лучшие 4K недели
Вы недавно смотрели
Реклама
Последние комментарии
...

fataxdd

16 июля 2024 07:13

...

Rustik99

12 июля 2024 10:11

...

Rograr

6 июля 2024 19:56

...

fenix

2 июля 2024 07:45

...

Fidelrus

28 июня 2024 13:53

Реклама