+8

Форсаж 10 / Fast X (2023) UHD BDRemux 2160p от селезень | 4K | HDR | D | Лицензия

Информация о фильме
Название: Форсаж 10
Оригинальное название: Fast X
Год выхода: 2023
Жанр: боевик, криминал
Режиссер: Луи Летерье
В ролях: Вин Дизель, Мишель Родригес, Джейсон Момоа, Тайриз Гибсон, Лудакрис, Джон Сина, Шарлиз Терон, Натали Эммануэль, Сон Ган, Джейсон Стэйтем

О фильме: 10 лет назад по заданию Агентства Доминик и Брайан ограбили бразильского политика, бизнесмена и по совместительству наркобарона Эрнана Рейеса, который пустился за ними в погоню и погиб. Теперь его сын Данте собирается реализовать коварный план мести - не просто убить Доминика, а заставить страдать, разделавшись с его семьёй.

Страна: США, Китай
Студия: One Race Films, Original Film, Perfect Storm Entertainment, Roth/Kirschenbaum Films, Universal Pictures
Продолжительность: 02:20:50
Перевод: Дублированный (профессиональный) | Лицензия (Bravo Records Georgia / Movie Dubbing)

Качество: BDRemux 2160p
Видео: 3840x2160 at 23.976 fps, MPEG-H HEVC HDR Video, 50946 kbps avg
Аудио #01: 48 kHz, AC3, 5.1, 384 Kbps | Дублированный (профессиональный) | Лицензия (Bravo Records Georgia / Movie Dubbing) | RUS |Форсаж 10 / Fast X (2023) UHD BDRemux 2160p от селезень | 4K | HDR | D | Лицензия
Аудио #02: 48 kHz, TrueHD, 7.1, 3202 Kbps | Оригинал | ENG |
Аудио #03: 48 kHz, AC3, 5.1, 448 Kbps | Оригинал | ENG |
Субтитры: Русские (Forced, 2 x full), украинские (Full), английские

Форсаж 10 / Fast X (2023) UHD BDRemux 2160p от селезень | 4K | HDR | D | Лицензия

Авторизуйтесь для получения доступа к скачиванию

Нет аккаунта? Регистрация открыта и займёт меньше минуты

Вход Регистрация

General
Unique ID : 119949422839179842018475063610852479713 (0x5A3D6B2481A6E8E3015557B1B4DB92E1)
Complete name : G:\VideoG\Fast.X.2023.D.BDREMUX.2160p.HDR.seleZen.mkv
Format : Matroska
Format version : Version 4
File size : 54.2 GiB
Duration : 2 h 20 min
Overall bit rate mode : Variable
Overall bit rate : 55.1 Mb/s
Frame rate : 23.976 FPS
Movie name : Fast X 2023 from seleZen
Encoded date : 2023-09-14 10:57:38 UTC
Writing application : mkvmerge v63.0.0 ('Everything') 64-bit
Writing library : libebml v1.4.2 + libmatroska v1.6.4

Video
ID : 1
Format : HEVC
Format/Info : High Efficiency Video Coding
Format profile : Main [email protected]@High
HDR format : SMPTE ST 2086, HDR10 compatible
Codec ID : V_MPEGH/ISO/HEVC
Duration : 2 h 20 min
Bit rate : 50.9 Mb/s
Width : 3 840 pixels
Height : 2 160 pixels
Display aspect ratio : 16:9
Frame rate mode : Constant
Frame rate : 23.976 (24000/1001) FPS
Color space : YUV
Chroma subsampling : 4:2:0 (Type 2)
Bit depth : 10 bits
Bits/(Pixel*Frame) : 0.256
Stream size : 50.1 GiB (93%)
Language : English
Default : Yes
Forced : No
Color range : Limited
Color primaries : BT.2020
Transfer characteristics : PQ
Matrix coefficients : BT.2020 non-constant
Mastering display color pri : Display P3
Mastering display luminance : min: 0.0010 cd/m2, max: 1000 cd/m2
Maximum Content Light Level : 1000 cd/m2
Maximum Frame-Average Light : 498 cd/m2

Audio #1
ID : 2
Format : AC-3
Format/Info : Audio Coding 3
Commercial name : Dolby Digital
Codec ID : A_AC3
Duration : 2 h 20 min
Bit rate mode : Constant
Bit rate : 384 kb/s
Channel(s) : 6 channels
Channel layout : L R C LFE Ls Rs
Sampling rate : 48.0 kHz
Frame rate : 31.250 FPS (1536 SPF)
Compression mode : Lossy
Stream size : 387 MiB (1%)
Title : Dub [Bravo Records Georgia / Movie Dubbing]
Language : Russian
Service kind : Complete Main
Default : Yes
Forced : No

Audio #2
ID : 3
Format : MLP FBA 16-ch
Format/Info : Meridian Lossless Packing FBA with 16-channel presentation
Commercial name : Dolby TrueHD with Dolby Atmos
Codec ID : A_TRUEHD
Duration : 2 h 20 min
Bit rate mode : Variable
Bit rate : 3 205 kb/s
Maximum bit rate : 5 547 kb/s
Channel(s) : 8 channels
Channel layout : L R C LFE Ls Rs Lb Rb
Sampling rate : 48.0 kHz
Frame rate : 1 200.000 FPS (40 SPF)
Compression mode : Lossless
Stream size : 3.15 GiB (6%)
Title : Original
Language : English
Default : No
Forced : No
Number of dynamic objects : 13
Bed channel count : 1 channel
Bed channel configuration : LFE

Audio #3
ID : 4
Format : AC-3
Format/Info : Audio Coding 3
Commercial name : Dolby Digital
Codec ID : A_AC3
Duration : 2 h 20 min
Bit rate mode : Constant
Bit rate : 448 kb/s
Channel(s) : 6 channels
Channel layout : L R C LFE Ls Rs
Sampling rate : 48.0 kHz
Frame rate : 31.250 FPS (1536 SPF)
Compression mode : Lossy
Stream size : 451 MiB (1%)
Language : English
Service kind : Complete Main
Default : No
Forced : No

Text #1
ID : 5
Format : UTF-8
Codec ID : S_TEXT/UTF8
Codec ID/Info : UTF-8 Plain Text
Duration : 2 h 5 min
Bit rate : 1 b/s
Frame rate : 0.006 FPS
Count of elements : 44
Stream size : 1.36 KiB (0%)
Title : Forced
Language : Russian
Default : Yes
Forced : Yes

Text #2
ID : 6
Format : UTF-8
Codec ID : S_TEXT/UTF8
Codec ID/Info : UTF-8 Plain Text
Duration : 2 h 20 min
Bit rate : 65 b/s
Frame rate : 0.184 FPS
Count of elements : 1546
Stream size : 66.9 KiB (0%)
Title : Full [Off.]
Language : Russian
Default : No
Forced : No

Text #3
ID : 7
Format : UTF-8
Codec ID : S_TEXT/UTF8
Codec ID/Info : UTF-8 Plain Text
Duration : 2 h 10 min
Bit rate : 77 b/s
Frame rate : 0.204 FPS
Count of elements : 1599
Stream size : 74.2 KiB (0%)
Title : Full v.2
Language : Russian
Default : No
Forced : No

Text #4
ID : 8
Format : UTF-8
Codec ID : S_TEXT/UTF8
Codec ID/Info : UTF-8 Plain Text
Duration : 2 h 20 min
Bit rate : 72 b/s
Frame rate : 0.186 FPS
Count of elements : 1563
Stream size : 74.0 KiB (0%)
Title : Full
Language : Ukrainian
Default : No
Forced : No

Text #5
ID : 9
Format : UTF-8
Codec ID : S_TEXT/UTF8
Codec ID/Info : UTF-8 Plain Text
Duration : 2 h 14 min
Bit rate : 58 b/s
Frame rate : 0.247 FPS
Count of elements : 1999
Stream size : 58.1 KiB (0%)
Title : Full
Language : English
Default : No
Forced : No

Text #6
ID : 10
Format : UTF-8
Codec ID : S_TEXT/UTF8
Codec ID/Info : UTF-8 Plain Text
Duration : 2 h 20 min
Bit rate : 68 b/s
Frame rate : 0.303 FPS
Count of elements : 2562
Stream size : 70.2 KiB (0%)
Title : SDH
Language : English
Default : No
Forced : No

Menu
00:00:00.000 : en:Глава 01
00:06:30.056 : en:Глава 02
00:15:47.238 : en:Глава 03
00:23:09.555 : en:Глава 04
00:32:54.890 : en:Глава 05
00:40:21.002 : en:Глава 06
00:46:43.676 : en:Глава 07
00:50:51.048 : en:Глава 08
00:57:37.412 : en:Глава 09
01:07:34.550 : en:Глава 10
01:14:01.312 : en:Глава 11
01:19:54.707 : en:Глава 12
01:28:26.051 : en:Глава 13
01:32:36.050 : en:Глава 14
01:38:26.484 : en:Глава 15
01:45:49.969 : en:Глава 16
01:49:08.459 : en:Глава 17
01:53:51.283 : en:Глава 18
02:00:17.710 : en:Глава 19
02:07:25.304 : en:Глава 20

Другие фильмы
У данной публикации пока нет комментариев.
Будь первым, оставь своё мнение в комментариях!
Информация
Посетители, находящиеся в группе Гости, не могут оставлять комментарии к данной публикации.
Самый популярный релиз недели
Донаты
Мы в соц. сетях / RSS

Лучшие релизы месяца
Лучшие SD недели
Лучшие 720p недели
Лучшие 1080p недели
Лучшие 4K недели
Вы недавно смотрели
Реклама
Последние комментарии
...

Al1ksandr

21 июня 2024 21:02

...

Bonzo

14 июня 2024 14:52

...

rmzshka

13 июня 2024 17:48

...

rmzshka

13 июня 2024 12:24

...

LisNick

13 июня 2024 08:45

Реклама