+13

Русалочка / The Little Mermaid (2023) UHD BDRemux 2160p от селезень | 4K | HDR | D, P

Информация о фильме
Название: Русалочка
Оригинальное название: The Little Mermaid
Год выхода: 2023
Жанр: фэнтези, мелодрама, мюзикл
Режиссер: Роб Маршалл
В ролях: Холли Бейли, Джона Хауэр-Кинг, Мелисса Маккарти, Хавьер Бардем, Нома Думезвени, Арт Малик, Давид Диггс, Джейкоб Тремблей, Аквафина, Джессика Александр

О фильме: Русалочку Ариэль, одну из дочерей морского царя Тритона, ужасно интересует человечество. Несмотря на неодобрение отца, она поднимается к поверхности и спасает попавшего в кораблекрушение принца Эрика. Узнав об этом, Тритон приходит в ярость и навсегда запрещает дочери покидать морское дно - этим и решает воспользоваться морская ведьма Урсула. В обмен на голос она даёт Ариэль ноги, но у девушки есть только три дня: если к закату третьего дня она не разделит с Эриком поцелуй настоящей любви, то навсегда попадёт в собственность ведьмы.

Страна: США
Студия: 5000 Broadway Productions, Lucamar Productions, Marc Platt Productions, Walt Disney Pictures
Продолжительность: 02:15:13
Перевод(ы):
#1: Дублированный | MovieDalen
#2: Профессиональный многоголосый | HDRezka Studio
#3: Профессиональный многоголосый | TVShows


Качество: BDRemux 2160p
Видео: 3840x2160 at 23.976 fps, MPEG-H HEVC HDR, 50000 kbps avg
Аудио #01: 48 kHz, AC3, 2.0, 192 Kbps | Дублированный | MovieDalen | RUS |Русалочка / The Little Mermaid (2023) UHD BDRemux 2160p от селезень | 4K | HDR | D, P
Аудио #02: 48 kHz, AC3, 5.1, 448 Kbps | Профессиональный многоголосый | HDRezka Studio | RUS |
Аудио #03: 48 kHz, AC3, 5.1, 384 Kbps | Профессиональный многоголосый | TVShows | RUS |
Аудио #04: 48 kHz, AC3, 5.1, 384 Kbps | Дублированный | UKR |
Аудио #05: 48 kHz, TrueHD, 7.1, 4880 Kbps | Оригинал | ENG |
Аудио #06: 48 kHz, AC3, 5.1, 640 Kbps | Оригинал | ENG |
Субтитры: Русские (2 x Forced, full), украинские (Forced, full), английские

Русалочка / The Little Mermaid (2023) UHD BDRemux 2160p от селезень | 4K | HDR | D, P

Авторизуйтесь для получения доступа к скачиванию

Нет аккаунта? Регистрация открыта и займёт меньше минуты

Вход Регистрация

General
Unique ID : 192451746925615831231592252999641421649 (0x90C8DBB4A85F29F42FEDB28D60655751)
Complete name : G:\VideoG\The.Little.Mermaid.2023.D.MVO.BDREMUX.2160p.HDR.seleZen.mkv
Format : Matroska
Format version : Version 4
File size : 53.9 GiB
Duration : 2 h 15 min
Overall bit rate mode : Variable
Overall bit rate : 57.0 Mb/s
Frame rate : 23.976 FPS
Movie name : The Little Mermaid 2023 from seleZen
Encoded date : 2023-09-17 21:08:55 UTC
Writing application : mkvmerge v63.0.0 ('Everything') 64-bit
Writing library : libebml v1.4.2 + libmatroska v1.6.4

Video
ID : 1
Format : HEVC
Format/Info : High Efficiency Video Coding
Format profile : Main [email protected]@High
HDR format : SMPTE ST 2086, HDR10 compatible
Codec ID : V_MPEGH/ISO/HEVC
Duration : 2 h 15 min
Bit rate : 50.0 Mb/s
Width : 3 840 pixels
Height : 2 160 pixels
Display aspect ratio : 16:9
Frame rate mode : Constant
Frame rate : 23.976 (24000/1001) FPS
Color space : YUV
Chroma subsampling : 4:2:0 (Type 2)
Bit depth : 10 bits
Bits/(Pixel*Frame) : 0.252
Stream size : 47.3 GiB (88%)
Language : English
Default : Yes
Forced : No
Color range : Limited
Color primaries : BT.2020
Transfer characteristics : PQ
Matrix coefficients : BT.2020 non-constant
Mastering display color pri : Display P3
Mastering display luminance : min: 0.0050 cd/m2, max: 1000 cd/m2

Audio #1
ID : 2
Format : AC-3
Format/Info : Audio Coding 3
Commercial name : Dolby Digital
Codec ID : A_AC3
Duration : 2 h 15 min
Bit rate mode : Constant
Bit rate : 192 kb/s
Channel(s) : 2 channels
Channel layout : L R
Sampling rate : 48.0 kHz
Frame rate : 31.250 FPS (1536 SPF)
Compression mode : Lossy
Stream size : 186 MiB (0%)
Title : Dub
Language : Russian
Service kind : Complete Main
Default : Yes
Forced : No

Audio #2
ID : 3
Format : AC-3
Format/Info : Audio Coding 3
Commercial name : Dolby Digital
Codec ID : A_AC3
Duration : 2 h 15 min
Bit rate mode : Constant
Bit rate : 448 kb/s
Channel(s) : 6 channels
Channel layout : L R C LFE Ls Rs
Sampling rate : 48.0 kHz
Frame rate : 31.250 FPS (1536 SPF)
Compression mode : Lossy
Stream size : 433 MiB (1%)
Title : MVO _HDRezka Studio
Language : Russian
Service kind : Complete Main
Default : No
Forced : No

Audio #3
ID : 4
Format : AC-3
Format/Info : Audio Coding 3
Commercial name : Dolby Digital
Codec ID : A_AC3
Duration : 2 h 15 min
Bit rate mode : Constant
Bit rate : 384 kb/s
Channel(s) : 6 channels
Channel layout : L R C LFE Ls Rs
Sampling rate : 48.0 kHz
Frame rate : 31.250 FPS (1536 SPF)
Compression mode : Lossy
Stream size : 371 MiB (1%)
Title : MVO_TVShows
Language : Russian
Service kind : Complete Main
Default : No
Forced : No

Audio #4
ID : 5
Format : AC-3
Format/Info : Audio Coding 3
Commercial name : Dolby Digital
Codec ID : A_AC3
Duration : 2 h 15 min
Bit rate mode : Constant
Bit rate : 384 kb/s
Channel(s) : 6 channels
Channel layout : L R C LFE Ls Rs
Sampling rate : 48.0 kHz
Frame rate : 31.250 FPS (1536 SPF)
Compression mode : Lossy
Stream size : 371 MiB (1%)
Title : Dub
Language : Ukrainian
Service kind : Complete Main
Default : No
Forced : No

Audio #5
ID : 6
Format : MLP FBA 16-ch
Format/Info : Meridian Lossless Packing FBA with 16-channel presentation
Commercial name : Dolby TrueHD with Dolby Atmos
Codec ID : A_TRUEHD
Duration : 2 h 15 min
Bit rate mode : Variable
Bit rate : 4 880 kb/s
Maximum bit rate : 7 533 kb/s
Channel(s) : 8 channels
Channel layout : L R C LFE Ls Rs Lb Rb
Sampling rate : 48.0 kHz
Frame rate : 1 200.000 FPS (40 SPF)
Compression mode : Lossless
Stream size : 4.61 GiB (9%)
Title : Original
Language : English
Default : No
Forced : No
Number of dynamic objects : 13
Bed channel count : 1 channel
Bed channel configuration : LFE

Audio #6
ID : 7
Format : AC-3
Format/Info : Audio Coding 3
Commercial name : Dolby Digital
Codec ID : A_AC3
Duration : 2 h 15 min
Bit rate mode : Constant
Bit rate : 640 kb/s
Channel(s) : 6 channels
Channel layout : L R C LFE Ls Rs
Sampling rate : 48.0 kHz
Frame rate : 31.250 FPS (1536 SPF)
Compression mode : Lossy
Stream size : 619 MiB (1%)
Language : English
Service kind : Complete Main
Default : No
Forced : No

Text #1
ID : 8
Format : UTF-8
Codec ID : S_TEXT/UTF8
Codec ID/Info : UTF-8 Plain Text
Duration : 19 s 604 ms
Bit rate : 70 b/s
Frame rate : 0.204 FPS
Count of elements : 4
Stream size : 172 Bytes (0%)
Title : Forced
Language : Russian
Default : Yes
Forced : No

Text #2
ID : 9
Format : UTF-8
Codec ID : S_TEXT/UTF8
Codec ID/Info : UTF-8 Plain Text
Duration : 2 h 7 min
Bit rate : 22 b/s
Frame rate : 0.054 FPS
Count of elements : 416
Stream size : 20.7 KiB (0%)
Title : Forced [HDRezka Studio]
Language : Russian
Default : No
Forced : No

Text #3
ID : 10
Format : UTF-8
Codec ID : S_TEXT/UTF8
Codec ID/Info : UTF-8 Plain Text
Duration : 2 h 13 min
Bit rate : 75 b/s
Frame rate : 0.230 FPS
Count of elements : 1841
Stream size : 73.9 KiB (0%)
Title : Full
Language : Russian
Default : No
Forced : No

Text #4
ID : 11
Format : UTF-8
Codec ID : S_TEXT/UTF8
Codec ID/Info : UTF-8 Plain Text
Duration : 19 s 436 ms
Bit rate : 72 b/s
Frame rate : 0.206 FPS
Count of elements : 4
Stream size : 176 Bytes (0%)
Title : Forced
Language : Ukrainian
Default : No
Forced : No

Text #5
ID : 12
Format : UTF-8
Codec ID : S_TEXT/UTF8
Codec ID/Info : UTF-8 Plain Text
Duration : 2 h 13 min
Bit rate : 77 b/s
Frame rate : 0.231 FPS
Count of elements : 1850
Stream size : 76.3 KiB (0%)
Title : Full
Language : Ukrainian
Default : No
Forced : No

Text #6
ID : 13
Format : UTF-8
Codec ID : S_TEXT/UTF8
Codec ID/Info : UTF-8 Plain Text
Duration : 2 h 6 min
Bit rate : 58 b/s
Frame rate : 0.260 FPS
Count of elements : 1984
Stream size : 54.4 KiB (0%)
Title : Full
Language : English (US)
Default : No
Forced : No

Text #7
ID : 14
Format : UTF-8
Codec ID : S_TEXT/UTF8
Codec ID/Info : UTF-8 Plain Text
Duration : 2 h 8 min
Bit rate : 70 b/s
Frame rate : 0.309 FPS
Count of elements : 2377
Stream size : 66.0 KiB (0%)
Title : SDH
Language : English (US)
Default : No
Forced : No

Menu
00:00:00.000 : en:Глава 01
00:04:00.699 : en:Глава 02
00:07:06.259 : en:Глава 03
00:10:54.654 : en:Глава 04
00:13:09.539 : en:Глава 05
00:16:39.332 : en:Глава 06
00:20:54.295 : en:Глава 07
00:28:46.099 : en:Глава 08
00:32:42.669 : en:Глава 09
00:38:15.752 : en:Глава 10
00:43:31.275 : en:Глава 11
00:49:18.330 : en:Глава 12
01:00:24.120 : en:Глава 13
01:08:08.167 : en:Глава 14
01:17:02.159 : en:Глава 15
01:22:43.959 : en:Глава 16
01:29:10.345 : en:Глава 17
01:31:19.849 : en:Глава 18
01:36:08.846 : en:Глава 19
01:39:50.484 : en:Глава 20
01:42:57.254 : en:Глава 21
01:47:04.293 : en:Глава 22
01:56:03.582 : en:Глава 23
01:59:40.840 : en:Глава 24
02:01:03.548 : en:Глава 25
02:05:50.418 : en:Глава 26

Другие фильмы
Комментарии:

...
dexter12 18 сентября 2023 18:15
0

Robot, Ну я же не конкретно вам говорю ), я знаю что его никто не выпустил. Просто сам факт, максимальнейшее качество, еще и фильм высокобюджетный, а дубляжа нет. Смотришь новые релизы, какие-то малобюджетки никому не нужные, но за то у них дубляж 5.1


...
Robot 18 сентября 2023 17:19
0

dexter12,

Хех. Ну найдите 5.1 оф. дубляж.) Удачи в поиске)

...
dexter12 18 сентября 2023 15:01
0

UHD BDRemux 2160p  4K HDR, а дубляж стерео ))

Информация
Посетители, находящиеся в группе Гости, не могут оставлять комментарии к данной публикации.
Самый популярный релиз недели
Донаты
Мы в соц. сетях / RSS

Лучшие релизы месяца
Лучшие SD недели
Лучшие 720p недели
Лучшие 1080p недели
Лучшие 4K недели
Вы недавно смотрели
Реклама
Последние комментарии
...

rmzshka

15 мая 2024 13:43

...

Andrey_Vladimirovich

13 мая 2024 18:12

...

Robot

13 мая 2024 16:53

...

rmzshka

13 мая 2024 16:21

...

supermehanik

13 мая 2024 02:03

Реклама