+10

Хуже не бывает / Scorched (2003) WEB-DLRip-AVC от DoMiNo & селезень | D, P2

Название: Хуже не бывает
Оригинальное название: Scorched
Год выпуска: 2003
Жанр: Комедия, криминал
Режиссер: Гейвин Грэйзер
В ролях: Алисия Сильверстоун, Рэйчел Ли Кук, Вуди Харрельсон, Джон Клиз, Паоло Костанзо, Дэвид Крамхолц, Джошуа Леонард, Уэйн Морс, Джеффри Тэмбор, Макс Уайн, Маркус Томас

О фильме:
Шейла — кассирша банка в небольшом американском городке. Ее парень Рик — менеджер этого же банка, которого начальство вот-вот уволит из-за частых ограблений банкоматов. Шейла решает бросить Рика и заодно отомстить ему, ограбив банк, тем самым подставив его под увольнение. В этот же день грабить несчастный банк приходят Стюарт и Джейсон — кассиры, у которых созрел точно такой же план. Столько грабителей на одно финансовое учреждение: ситуация — хуже не бывает!

Выпущено: США, Code Entertainment, Eclipse Catering
Продолжительность: 01:34:39
Перевод 1: Дублированный | Мосфильм-Мастер
Перевод 2: Профессиональный (двухголосый, закадровый) | SDI Media
Субтитры: Русские (Full), Английские

Файл
Формат: Matroska
Качество: WEB-DLRip-AVC
Видео: 1024×576 at 23.976 fps, [email protected], ~3311 kbps
Аудио 1: AC3, 6 ch, ~384 kbps — | Русский | Хуже не бывает / Scorched (2003) WEB-DLRip-AVC от DoMiNo & селезень | D, P2 | Мосфильм-Мастер
Аудио 2: AC3, 2 ch, ~192 kbps — | Русский | | SDI Media
Аудио 3: AAC, 2 ch, ~96 kbps — | Английский | | Original
Формат субтитров: softsub (SRT)

Авторизуйтесь для получения доступа к скачиванию

Нет аккаунта? Регистрация открыта и займёт меньше минуты

Вход Регистрация

x264 [info]: frame I: 915 Avg QP: 17.67 size: 56063
x264 [info]: frame P: 27702 Avg QP: 18.85 size: 30131
x264 [info]: frame B: 107551 Avg QP: 20.73 size: 13614

General
Unique ID: 328961048302928413589549182284647983734 (0xF77B97E58C1673410E4618286A956A76)
Complete name: R: Scorched.2003.WEB-DLRip.x264.seleZen.mkv
Format: Matroska
Format version: Version 4
File size: 2.63 GiB
Duration: 1 h 34 min
Overall bit rate: 3 985 kb/s
Frame rate: 23.976 FPS
Movie name: Scorched.2003.WEB-DLRip.x264.seleZen
Encoded date: 18.09.2023 10:33:49 UTC
Writing application: mkvmerge v79.0 ('Funeral Pyres') 64-bit
Writing library: libebml v1.4.4 + libmatroska v1.7.1
Cover: Yes
Attachments: cover.jpg / small_cover.jpg

Video
ID: 1
Format: AVC
Format/Info: Advanced Video Codec
Format profile: [email protected]
Format settings: CABAC / 12 Ref Frames
Format settings, CABAC: Yes
Format settings, Reference: 12 frames
Codec ID: V_MPEG4/ISO/AVC
Duration: 1 h 34 min
Bit rate: 3 311 kb/s
Width: 1 024 pixels
Height: 576 pixels
Display aspect ratio: 16:9
Frame rate mode: Constant
Frame rate: 23.976 (24000/1001) FPS
Color space: YUV
Chroma subsampling: 4:2:0
Bit depth: 8 bits
Scan type: Progressive
Bits/(Pixel*Frame): 0.234
Stream size: 2.19 GiB (83%)
Title: -=DoMiNo=-
Writing library: x264 core 164 r3107+58M ae98796 t_mod_New | by -=DoMiNo=- | X86_64]
Encoding settings: cabac=1 / ref=12 / deblock=1:-1:-1 / analyse=0×3:0×133 / me=umh / subme=10 / psy=1 / fade_compensate=0.00 / psy_rd=1.00:0.15 / mixed_ref=1 / me_range=32 / chroma_me=1 / trellis=2 / 8×8dct=1 / cqm=0 / deadzone=21,11 / fast_pskip=0 / chroma_qp_offset=-3 / threads=18 / lookahead_threads=4 / sliced_threads=0 / nr=0 / decimate=1 / interlaced=0 / bluray_compat=0 / constrained_intra=0 / fgo=0 / bframes=16 / b_pyramid=2 / b_adapt=2 / b_bias=0 / direct=3 / weightb=1 / open_gop=0 / weightp=2 / keyint=240 / keyint_min=24 / scenecut=40 / intra_refresh=0 / rc_lookahead=60 / rc=crf / mbtree=0 / crf=18.8000 / qcomp=0.70 / qpmin=0:0:0 / qpmax=69:69:69 / qpstep=4 / vbv_maxrate=50000 / vbv_bufsize=62500 / crf_max=0.0 / nal_hrd=none / filler=0 / ip_ratio=1.33 / pb_ratio=1.30 / aq=1:1.00 / aq-sensitivity=10.00 / aq-factor=1.00:1.00:1.00 / aq2=0 / aq3=0
Language: English
Default: Yes
Forced: No

Audio #1
ID: 2
Format: AC-3
Format/Info: Audio Coding 3
Commercial name: Dolby Digital
Codec ID: A_AC3
Duration: 1 h 34 min
Bit rate mode: Constant
Bit rate: 384 kb/s
Channel (s): 6 channels
Channel layout: L R C LFE Ls Rs
Sampling rate: 48.0 kHz
Frame rate: 31.250 FPS (1536 SPF)
Compression mode: Lossy
Stream size: 260 MiB (10%)
Title: DUB
Language: Russian
Service kind: Complete Main
Default: Yes
Forced: No

Audio #2
ID: 3
Format: AC-3
Format/Info: Audio Coding 3
Commercial name: Dolby Digital
Codec ID: A_AC3
Duration: 1 h 34 min
Bit rate mode: Constant
Bit rate: 192 kb/s
Channel (s): 2 channels
Channel layout: L R
Sampling rate: 48.0 kHz
Frame rate: 31.250 FPS (1536 SPF)
Compression mode: Lossy
Stream size: 130 MiB (5%)
Title: DVO-SDI Media
Language: Russian
Service kind: Complete Main
Default: No
Forced: No

Audio #3
ID: 4
Format: AAC LC
Format/Info: Advanced Audio Codec Low Complexity
Codec ID: A_AAC-2
Duration: 1 h 34 min
Bit rate: 96.0 kb/s
Channel (s): 2 channels
Channel layout: L R
Sampling rate: 48.0 kHz
Frame rate: 46.875 FPS (1024 SPF)
Compression mode: Lossy
Stream size: 65.1 MiB (2%)
Language: English
Default: No
Forced: No

Text #1
ID: 5
Format: UTF-8
Codec ID: S_TEXT/UTF8
Codec ID/Info: UTF-8 Plain Text
Duration: 1 h 28 min
Bit rate: 86 b/s
Frame rate: 0.138 FPS
Count of elements: 732
Stream size: 56.2 KiB (0%)
Title: Full
Language: Russian
Default: No
Forced: No

Text #2
ID: 6
Format: UTF-8
Codec ID: S_TEXT/UTF8
Codec ID/Info: UTF-8 Plain Text
Duration: 1 h 33 min
Bit rate: 57 b/s
Frame rate: 0.273 FPS
Count of elements: 1535
Stream size: 39.7 KiB (0%)
Title: SDH
Language: English
Default: No
Forced: No

Menu
00:00:00.000: en: Глава 01
00:05:50.000: en: Глава 02
00:11:40.000: en: Глава 03
00:17:30.000: en: Глава 04
00:23:20.000: en: Глава 05
00:29:10.000: en: Глава 06
00:35:00.000: en: Глава 07
00:40:50.000: en: Глава 08
00:46:40.000: en: Глава 09
00:52:30.000: en: Глава 10
00:58:20.000: en: Глава 11
01:04:10.000: en: Глава 12
01:10:00.000: en: Глава 13
01:15:50.000: en: Глава 14
01:21:40.000: en: Глава 15
01:27:30.000: en: Глава 16
01:33:20.000: en: Глава 17

Другие фильмы
У данной публикации пока нет комментариев.
Будь первым, оставь своё мнение в комментариях!
Информация
Посетители, находящиеся в группе Гости, не могут оставлять комментарии к данной публикации.
Самый популярный релиз недели
Донаты
Мы в соц. сетях / RSS

Лучшие релизы месяца
Лучшие SD недели
Лучшие 720p недели
Лучшие 1080p недели
Лучшие 4K недели
Вы недавно смотрели
Реклама
Последние комментарии
...

Tony1984

Сегодня, 14:36

...

bolonka123

Вчера, 10:05

...

Sergunka

17 апреля 2024 23:31

...

-=DoMiNo=-

17 апреля 2024 13:52

...

bolonka123

17 апреля 2024 11:43

Реклама