+8

Человек дождя / Rain Man (1988) UHD BDRemux 2160p от селезень | 4K | HDR | Dolby Vision Profile 8 | D, P

Информация о фильме
Название: Человек дождя
Оригинальное название: Rain Man
Год выхода: 1988
Жанр: драма
Режиссер: Барри Левинсон
В ролях: Дастин Хоффман, Том Круз, Валерия Голино, Джералд Р. Молен, Джек Мёрдок, Майкл Д. Робертс, Ральф Сеймур, Люсинда Дженни, Бонни Хант, Ким Робиллард

О фильме: Грубоватому и эгоистичному молодому человеку Чарли в наследство от отца достались лишь розовые кусты да «Бьюик» 1949 года, а львиная доля наследства уходит его брату-аутисту Раймонду. Задавшись целью отобрать «свою долю», Чарли похищает старшего брата. Но когда выясняет, что Раймонд обладает недюжими математическими способностями, памятью и внимательностью, решает использовать это в корыстных целях.

Страна: США
Студия: Guber-Peters Company, Mirage Entertainment, Star Partners II Ltd., United Artists
Продолжительность: 02:13:49
Перевод(ы):
#1: Дублированный | Paramount Channel
#2: Профессиональный многоголосый | Лицензия BD CEE


Качество: BDRemux 2160p
Видео: 3840x2160 at 23.976 fps, MPEG-H HEVC HDR, Dolby Vision Video, 68400 kbps avg
Аудио #01: 48 kHz, AC3, 2.0, 256 Kbps | Дублированный | Paramount Channel | RUS |Человек дождя / Rain Man (1988) UHD BDRemux 2160p от селезень | 4K | HDR | Dolby Vision Profile 8 | D, P
Аудио #02: 48 kHz, AC3, 5.1, 448 Kbps | Профессиональный многоголосый | Лицензия BD CEE | RUS |
Аудио #03: 48 kHz, DTS-HD MA, 5.1, 3796 Kbps | Оригинал | ENG |
Субтитры: Русские (4 x full), английские

Человек дождя / Rain Man (1988) UHD BDRemux 2160p от селезень | 4K | HDR | Dolby Vision Profile 8 | D, P

Авторизуйтесь для получения доступа к скачиванию

Нет аккаунта? Регистрация открыта и займёт меньше минуты

Вход Регистрация

General
Unique ID : 48218238428795445482842697200417908527 (0x24467EB3710EF48EABB440EB1588272F)
Complete name : G:\VideoG\Rain.Man.1988.BDREMUX.2160p.HDR.DVP8.seleZen.mkv
Format : Matroska
Format version : Version 4
File size : 68.2 GiB
Duration : 2 h 13 min
Overall bit rate mode : Variable
Overall bit rate : 72.9 Mb/s
Frame rate : 23.976 FPS
Movie name : Rain Man 1988 from seleZen
Encoded date : 2023-09-18 03:39:24 UTC
Writing application : mkvmerge v79.0 ('Funeral Pyres') 64-bit
Writing library : libebml v1.4.4 + libmatroska v1.7.1

Video
ID : 1
ID in the original source medium : 4117 (0x1015)
Format : HEVC
Format/Info : High Efficiency Video Coding
Format profile : Main [email protected]@High
HDR format : Dolby Vision, Version 1.0, dvhe.08.06, BL+RPU, Blu-ray compatible / SMPTE ST 2086, HDR10 compatible
Codec ID : V_MPEGH/ISO/HEVC
Duration : 2 h 13 min
Bit rate : 68.4 Mb/s
Width : 3 840 pixels
Height : 2 160 pixels
Display aspect ratio : 16:9
Frame rate mode : Constant
Frame rate : 23.976 (24000/1001) FPS
Color space : YUV
Chroma subsampling : 4:2:0 (Type 2)
Bit depth : 10 bits
Bits/(Pixel*Frame) : 0.344
Time code of first frame : 00:00:00:0000000000
Stream size : 64.0 GiB (94%)
Language : English
Default : No
Forced : No
Color range : Limited
Color primaries : BT.2020
Transfer characteristics : PQ
Matrix coefficients : BT.2020 non-constant
Mastering display color primaries : Display P3
Mastering display luminance : min: 0.0001 cd/m2, max: 1000 cd/m2
Maximum Content Light Level : 1006 cd/m2
Maximum Frame-Average Light Level : 139 cd/m2
Original source medium : Blu-ray

Audio #1
ID : 2
Format : AC-3
Format/Info : Audio Coding 3
Commercial name : Dolby Digital
Codec ID : A_AC3
Duration : 2 h 13 min
Bit rate mode : Constant
Bit rate : 256 kb/s
Channel(s) : 2 channels
Channel layout : L R
Sampling rate : 48.0 kHz
Frame rate : 31.250 FPS (1536 SPF)
Compression mode : Lossy
Stream size : 245 MiB (0%)
Title : Dub [Paramount Channel]
Language : Russian
Service kind : Complete Main
Default : Yes
Forced : No

Audio #2
ID : 3
Format : AC-3
Format/Info : Audio Coding 3
Commercial name : Dolby Digital
Codec ID : A_AC3
Duration : 2 h 13 min
Bit rate mode : Constant
Bit rate : 448 kb/s
Channel(s) : 6 channels
Channel layout : L R C LFE Ls Rs
Sampling rate : 48.0 kHz
Frame rate : 31.250 FPS (1536 SPF)
Compression mode : Lossy
Stream size : 429 MiB (1%)
Title : MVO [BD CEE]
Language : Russian
Service kind : Complete Main
Default : No
Forced : No

Audio #3
ID : 4
Format : DTS XLL
Format/Info : Digital Theater Systems
Commercial name : DTS-HD Master Audio
Codec ID : A_DTS
Duration : 2 h 13 min
Bit rate mode : Variable
Bit rate : 3 796 kb/s
Channel(s) : 6 channels
Channel layout : C L R Ls Rs LFE
Sampling rate : 48.0 kHz
Frame rate : 93.750 FPS (512 SPF)
Bit depth : 24 bits
Compression mode : Lossless
Stream size : 3.55 GiB (5%)
Title : Original
Language : English
Default : No
Forced : No

Text #1
ID : 5
Format : UTF-8
Codec ID : S_TEXT/UTF8
Codec ID/Info : UTF-8 Plain Text
Duration : 2 h 6 min
Bit rate : 133 b/s
Frame rate : 0.263 FPS
Count of elements : 1993
Stream size : 124 KiB (0%)
Title : Full 1
Language : Russian
Default : No
Forced : No

Text #2
ID : 6
Format : UTF-8
Codec ID : S_TEXT/UTF8
Codec ID/Info : UTF-8 Plain Text
Duration : 2 h 8 min
Bit rate : 133 b/s
Frame rate : 0.255 FPS
Count of elements : 1967
Stream size : 126 KiB (0%)
Title : Full 2
Language : Russian
Default : No
Forced : No

Text #3
ID : 7
Format : UTF-8
Codec ID : S_TEXT/UTF8
Codec ID/Info : UTF-8 Plain Text
Duration : 2 h 8 min
Bit rate : 145 b/s
Frame rate : 0.238 FPS
Count of elements : 1840
Stream size : 138 KiB (0%)
Title : Full 3
Language : Russian
Default : No
Forced : No

Text #4
ID : 8
Format : UTF-8
Codec ID : S_TEXT/UTF8
Codec ID/Info : UTF-8 Plain Text
Duration : 2 h 8 min
Bit rate : 122 b/s
Frame rate : 0.242 FPS
Count of elements : 1863
Stream size : 115 KiB (0%)
Title : Full_Stevvie
Language : Russian
Default : No
Forced : No

Text #5
ID : 9
Format : UTF-8
Codec ID : S_TEXT/UTF8
Codec ID/Info : UTF-8 Plain Text
Duration : 2 h 7 min
Bit rate : 91 b/s
Frame rate : 0.313 FPS
Count of elements : 2400
Stream size : 85.6 KiB (0%)
Title : Full
Language : English
Default : No
Forced : No

Text #6
ID : 10
Format : UTF-8
Codec ID : S_TEXT/UTF8
Codec ID/Info : UTF-8 Plain Text
Duration : 2 h 7 min
Bit rate : 93 b/s
Frame rate : 0.322 FPS
Count of elements : 2469
Stream size : 87.9 KiB (0%)
Title : SDH
Language : English
Default : No
Forced : No

Menu
00:00:00.000 : en:Глава 01
00:12:32.418 : en:Глава 02
00:24:55.327 : en:Глава 03
00:37:43.511 : en:Глава 04
00:50:56.220 : en:Глава 05
01:03:48.324 : en:Глава 06
01:18:37.463 : en:Глава 07
01:28:53.203 : en:Глава 08
01:41:22.493 : en:Глава 09
01:53:46.069 : en:Глава 10

Другие фильмы
У данной публикации пока нет комментариев.
Будь первым, оставь своё мнение в комментариях!
Информация
Посетители, находящиеся в группе Гости, не могут оставлять комментарии к данной публикации.
Самый популярный релиз недели
Донаты
Мы в соц. сетях / RSS

Лучшие релизы месяца
Лучшие SD недели
Лучшие 720p недели
Лучшие 1080p недели
Лучшие 4K недели
Вы недавно смотрели
Реклама
Последние комментарии
...

rmzshka

15 мая 2024 13:43

...

Andrey_Vladimirovich

13 мая 2024 18:12

...

Robot

13 мая 2024 16:53

...

rmzshka

13 мая 2024 16:21

...

supermehanik

13 мая 2024 02:03

Реклама