+7

Карнифекс: Борьба за выживание / Carnifex (2022) WEB-DL 1080p от селезень | D

Информация о фильме
Название: Вымерший вид
Оригинальное название: Carnifex
Год выхода: 2022
Жанр: ужасы
Режиссер: Шон Лахифф
В ролях: Александра Парк, Сиси Стрингер, Гарри Гринвуд, Даррен Гилшенан, Брендан Рок

О фильме: Девушка-оператор с двумя экологами отправляется в глухие австралийские леса. Ребята заменяют фотоловушки и просматривают их записи, надеясь увидеть редкие виды животных, чтобы эта местность получила особый охранный статус. Вскоре они действительно обнаруживают считавшийся вымершим вид и на радостях забывают, что в Австралии всё пытается тебя убить.

Страна: Австралия
Студия: Dancing Road Productions
Продолжительность: 01:31:21
Перевод: Дублированный

Качество: WEB-DL 1080p
Видео: MPEG-4 AVC, 1920x800, 6467 Kbit/s, 23.976 fps
Аудио #01: 48 kHz, AC3, 5.1, 384 Kbps | Дублированный | RUS |Карнифекс: Борьба за выживание / Carnifex (2022) WEB-DL 1080p от селезень | D
Аудио #02: 48 kHz, E-AC3, 5.1, 640 Kbps | Оригинал | ENG |
Субтитры: Русские (Full), английские

Карнифекс: Борьба за выживание / Carnifex (2022) WEB-DL 1080p от селезень | D

Авторизуйтесь для получения доступа к скачиванию

Нет аккаунта? Регистрация открыта и займёт меньше минуты

Вход Регистрация

General
Unique ID : 214946907237157541749430980545849621508 (0xA1B544BD14BACAF88980A2B1612C7C04)
Complete name : G:\VideoG\Carnifex.2022.AMZN.WEB-DL.1080p.seleZen.mkv
Format : Matroska
Format version : Version 4
File size : 4.78 GiB
Duration : 1 h 31 min
Overall bit rate : 7 494 kb/s
Frame rate : 23.976 FPS
Movie name : Carnifex 2022 from seleZen
Encoded date : 2023-09-18 22:28:07 UTC
Writing application : mkvmerge v63.0.0 ('Everything') 64-bit
Writing library : libebml v1.4.2 + libmatroska v1.6.4

Video
ID : 1
Format : AVC
Format/Info : Advanced Video Codec
Format profile : High@L4
Format settings : CABAC / 4 Ref Frames
Format settings, CABAC : Yes
Format settings, Reference frames : 4 frames
Codec ID : V_MPEG4/ISO/AVC
Duration : 1 h 31 min
Bit rate mode : Constant
Bit rate : 6 467 kb/s
Nominal bit rate : 10 000 kb/s
Width : 1 920 pixels
Height : 800 pixels
Display aspect ratio : 2.40:1
Frame rate mode : Constant
Frame rate : 23.976 (24000/1001) FPS
Color space : YUV
Chroma subsampling : 4:2:0
Bit depth : 8 bits
Scan type : Progressive
Bits/(Pixel*Frame) : 0.176
Stream size : 4.13 GiB (86%)
Language : English (US)
Default : Yes
Forced : No
Color range : Limited
Color primaries : BT.709
Transfer characteristics : BT.709
Matrix coefficients : BT.709

Audio #1
ID : 2
Format : AC-3
Format/Info : Audio Coding 3
Commercial name : Dolby Digital
Codec ID : A_AC3
Duration : 1 h 31 min
Bit rate mode : Constant
Bit rate : 384 kb/s
Channel(s) : 6 channels
Channel layout : L R C LFE Ls Rs
Sampling rate : 48.0 kHz
Frame rate : 31.250 FPS (1536 SPF)
Compression mode : Lossy
Stream size : 251 MiB (5%)
Title : Dub
Language : Russian
Service kind : Complete Main
Default : Yes
Forced : No

Audio #2
ID : 3
Format : E-AC-3
Format/Info : Enhanced AC-3
Commercial name : Dolby Digital Plus
Codec ID : A_EAC3
Duration : 1 h 31 min
Bit rate mode : Constant
Bit rate : 640 kb/s
Channel(s) : 6 channels
Channel layout : L R C LFE Ls Rs
Sampling rate : 48.0 kHz
Frame rate : 31.250 FPS (1536 SPF)
Compression mode : Lossy
Stream size : 418 MiB (9%)
Title : Original
Language : English
Service kind : Complete Main
Default : No
Forced : No

Text #1
ID : 4
Format : UTF-8
Codec ID : S_TEXT/UTF8
Codec ID/Info : UTF-8 Plain Text
Duration : 1 h 26 min
Bit rate : 44 b/s
Frame rate : 0.135 FPS
Count of elements : 700
Stream size : 28.2 KiB (0%)
Title : Full
Language : Russian
Default : No
Forced : No

Text #2
ID : 5
Format : UTF-8
Codec ID : S_TEXT/UTF8
Codec ID/Info : UTF-8 Plain Text
Duration : 1 h 19 min
Bit rate : 34 b/s
Frame rate : 0.151 FPS
Count of elements : 715
Stream size : 19.8 KiB (0%)
Title : Full
Language : English (US)
Default : No
Forced : No

Text #3
ID : 6
Format : UTF-8
Codec ID : S_TEXT/UTF8
Codec ID/Info : UTF-8 Plain Text
Duration : 1 h 30 min
Bit rate : 40 b/s
Frame rate : 0.198 FPS
Count of elements : 1075
Stream size : 27.1 KiB (0%)
Title : SDH
Language : English (US)
Default : No
Forced : No

Другие фильмы
У данной публикации пока нет комментариев.
Будь первым, оставь своё мнение в комментариях!
Информация
Посетители, находящиеся в группе Гости, не могут оставлять комментарии к данной публикации.
Самый популярный релиз недели
Донаты
Мы в соц. сетях / RSS

Лучшие релизы месяца
Лучшие SD недели
Лучшие 720p недели
Лучшие 1080p недели
Лучшие 4K недели
Вы недавно смотрели
Реклама
Последние комментарии
...

fataxdd

16 июля 2024 07:13

...

Rustik99

12 июля 2024 10:11

...

Rograr

6 июля 2024 19:56

...

fenix

2 июля 2024 07:45

...

Fidelrus

28 июня 2024 13:53

Реклама