+8

Жанна Дюбарри / Jeanne du Barry (2023) BDRip 1080p от селезень | D

Информация о фильме
Название: Жанна Дюбарри
Оригинальное название: Jeanne du Barry
Год выхода: 2023
Жанр: драма, биография, история
Режиссер: Майвенн
В ролях: Майвенн, Джонни Депп, Бенжамен Лаверн, Мельвиль Пупо, Робен Ренуччи, Пьер Ришар, Марианн Басле, Паскаль Греггори, Каролин Шаньоллю, Индия Хэйр

О фильме: Жанна Вобернье, женщина из низшего сословия, выбивается из нищеты при помощи женских чар. Ее покровитель, граф Дюбарри, разбогатевший благодаря любовным интригам Жанны, желает представить ее королю и организует свидание через влиятельного герцога де Ришелье. Встреча выходит далеко за рамки его ожиданий - Жанна влюбляет в себя Людовика XV с первого взгляда своей непосредственностью.
После знакомства с куртизанкой у короля вновь пробуждается вкус к жизни - настолько сильно, что он больше не может жить без Жанны и делает её своей официальной фавориткой. Однако, никто не желает видеть во главе двора простолюдинку, правящую королем.


Страна: Франция
Студия: France Télévision, IN.2 Film, Why Not Productions
Продолжительность: 01:56:36
Перевод: Дублированный | Мосфильм-Мастер

Качество: BDRip 1080p
Видео: MPEG-4 AVC, 1920x1038, 16.5 Mbit/s, 24.000 fps
Аудио #01: 48 kHz, AC3, 5.1, 384 Kbps | Дублированный | Мосфильм-Мастер | RUS |Жанна Дюбарри / Jeanne du Barry (2023) BDRip 1080p от селезень | D
Аудио #02: 48 kHz, E-AC3, 5.1, 384 Kbps | Дублированный | Мосфильм-Мастер | RUS |
Аудио #03: 48 kHz, AC3, 5.1, 640 Kbps | Оригинал | FRE |
Субтитры: Русские (Full), английские

Жанна Дюбарри / Jeanne du Barry (2023) BDRip 1080p от селезень | D

Авторизуйтесь для получения доступа к скачиванию

Нет аккаунта? Регистрация открыта и займёт меньше минуты

Вход Регистрация

General
Unique ID : 68544945757063351616236402707043684741 (0x339146BF54F5B7EEE38E57645E479185)
Complete name : G:\VideoG\Jeanne.du.Barry.2023.BDRip.1080p.seleZen.mkv
Format : Matroska
Format version : Version 4
File size : 14.6 GiB
Duration : 1 h 56 min
Overall bit rate : 17.9 Mb/s
Frame rate : 24.000 FPS
Movie name : Jeanne du Barry 2023 from seleZen
Encoded date : 2023-09-21 06:16:37 UTC
Writing application : mkvmerge v63.0.0 ('Everything') 64-bit
Writing library : libebml v1.4.2 + libmatroska v1.6.4

Video
ID : 1
Format : AVC
Format/Info : Advanced Video Codec
Format profile : [email protected]
Format settings : CABAC / 4 Ref Frames
Format settings, CABAC : Yes
Format settings, Reference frames : 4 frames
Codec ID : V_MPEG4/ISO/AVC
Duration : 1 h 56 min
Bit rate : 16.5 Mb/s
Width : 1 920 pixels
Height : 1 038 pixels
Display aspect ratio : 1.85:1
Frame rate mode : Constant
Frame rate : 24.000 FPS
Color space : YUV
Chroma subsampling : 4:2:0
Bit depth : 8 bits
Scan type : Progressive
Bits/(Pixel*Frame) : 0.345
Stream size : 13.4 GiB (92%)
Writing library : x264 core 164 r3099+55M seleZen t_mod_New [(8 & 10)-bit@all X86_64]
Encoding settings : cabac=1 / ref=4 / deblock=1:-2:-2 / analyse=0x3:0x133 / me=umh / subme=10 / psy=1 / fade_compensate=0.00 / psy_rd=1.02:0.03 / mixed_ref=1 / me_range=32 / chroma_me=1 / trellis=2 / 8x8dct=1 / cqm=0 / deadzone=21,11 / fast_pskip=0 / chroma_qp_offset=-3 / threads=24 / lookahead_threads=4 / sliced_threads=0 / nr=0 / decimate=0 / interlaced=0 / bluray_compat=0 / constrained_intra=0 / fgo=0 / bframes=9 / b_pyramid=2 / b_adapt=2 / b_bias=0 / direct=1 / weightb=1 / open_gop=0 / weightp=2 / keyint=240 / keyint_min=24 / scenecut=40 / intra_refresh=0 / rc_lookahead=60 / rc=crf / mbtree=0 / crf=18.6000 / qcomp=0.60 / qpmin=0:0:0 / qpmax=51:51:51 / qpstep=4 / vbv_maxrate=50000 / vbv_bufsize=62500 / crf_max=0.0 / nal_hrd=none / filler=0 / ip_ratio=1.40 / pb_ratio=1.30 / aq=3:0.80 / aq-sensitivity=10.00 / aq-factor=1.00:1.00:1.00 / aq2=0 / aq3=0
Language : English
Default : Yes
Forced : No

Audio #1
ID : 2
Format : AC-3
Format/Info : Audio Coding 3
Commercial name : Dolby Digital
Codec ID : A_AC3
Duration : 1 h 56 min
Bit rate mode : Constant
Bit rate : 384 kb/s
Channel(s) : 6 channels
Channel layout : L R C LFE Ls Rs
Sampling rate : 48.0 kHz
Frame rate : 31.250 FPS (1536 SPF)
Compression mode : Lossy
Stream size : 320 MiB (2%)
Title : Dub
Language : Russian
Service kind : Complete Main
Default : Yes
Forced : No

Audio #2
ID : 3
Format : E-AC-3
Format/Info : Enhanced AC-3
Commercial name : Dolby Digital Plus
Codec ID : A_EAC3
Duration : 1 h 56 min
Bit rate mode : Constant
Bit rate : 384 kb/s
Channel(s) : 6 channels
Channel layout : L R C LFE Ls Rs
Sampling rate : 48.0 kHz
Frame rate : 31.250 FPS (1536 SPF)
Compression mode : Lossy
Stream size : 320 MiB (2%)
Title : Dub
Language : Russian
Service kind : Complete Main
Default : No
Forced : No

Audio #3
ID : 4
Format : AC-3
Format/Info : Audio Coding 3
Commercial name : Dolby Digital
Codec ID : A_AC3
Duration : 1 h 56 min
Bit rate mode : Constant
Bit rate : 640 kb/s
Channel(s) : 6 channels
Channel layout : L R C LFE Ls Rs
Sampling rate : 48.0 kHz
Frame rate : 31.250 FPS (1536 SPF)
Compression mode : Lossy
Stream size : 534 MiB (4%)
Title : Original
Language : French
Service kind : Complete Main
Default : No
Forced : No

Text #1
ID : 5
Format : UTF-8
Codec ID : S_TEXT/UTF8
Codec ID/Info : UTF-8 Plain Text
Duration : 1 h 47 min
Bit rate : 64 b/s
Frame rate : 0.135 FPS
Count of elements : 870
Stream size : 50.5 KiB (0%)
Title : Full
Language : Russian
Default : No
Forced : No

Text #2
ID : 6
Format : UTF-8
Codec ID : S_TEXT/UTF8
Codec ID/Info : UTF-8 Plain Text
Duration : 1 h 47 min
Bit rate : 32 b/s
Frame rate : 0.127 FPS
Count of elements : 825
Stream size : 26.0 KiB (0%)
Language : English
Default : No
Forced : No

Menu
00:00:00.000 : en:Глава 01
00:10:01.125 : en:Глава 02
00:18:35.458 : en:Глава 03
00:27:22.542 : en:Глава 04
00:37:42.417 : en:Глава 05
00:48:06.750 : en:Глава 06
00:57:32.250 : en:Глава 07
01:08:07.125 : en:Глава 08
01:20:42.583 : en:Глава 09
01:31:40.583 : en:Глава 10
01:42:23.917 : en:Глава 11
01:50:38.542 : en:Глава 12

Другие фильмы
У данной публикации пока нет комментариев.
Будь первым, оставь своё мнение в комментариях!
Информация
Посетители, находящиеся в группе Гости, не могут оставлять комментарии к данной публикации.
Самый популярный релиз недели
Донаты
Мы в соц. сетях / RSS

Лучшие релизы месяца
Лучшие SD недели
Лучшие 720p недели
Лучшие 1080p недели
Лучшие 4K недели
Вы недавно смотрели
Реклама
Последние комментарии
...

Al1ksandr

21 июня 2024 21:02

...

Bonzo

14 июня 2024 14:52

...

rmzshka

13 июня 2024 17:48

...

rmzshka

13 июня 2024 12:24

...

LisNick

13 июня 2024 08:45

Реклама