+14

Зов мести / What Remains (2022) WEB-DLRip-AVC от DoMiNo & селезень | P | OKKO | Локализованная версия

Информация о фильме
Название: Зов мести
Оригинальное название: What Remains
Год выхода: 2022
Жанр: Триллер, драма, детектив
Режиссер: Нэйтан Скоггинс
В ролях: Энн Хеч, Келлан Латс, Кресс Уильямс, Стелио Саванте, Джулиана ДеСтефано, Линдсэй Уокер, Маркус Глэдни мл., Мейджор Додж, Кори Скотт Поллард, Брэннон Кросс

О фильме:
Священник Маршалл Шепард — скорбящий вдовец, чья жена Элизабет была убита пять лет назад. Его сын Сэмюэль до сих пор зол на отца за то, что тот простил мужчину, виновного в ее смерти. Но теперь этот человек, Трой Паркер, вернулся в город, и Маршал дает ему шанс на новую жизнь, предлагая работу. Это приводит Сэмюэля в ярость. Между тем, шериф расследует новое убийство… «Зов мести» — драматический триллер с Энн Хеч и Келланом Латсом в главных ролях.

Страна: США
Студия: Sharpened Iron Productions, What Remains
Продолжительность: 01:41:27
Перевод: Профессиональный многоголосый | OKKO
Субтитры: Русские (Full)

Файл
Формат: Matroska
Качество: WEB-DLRip-AVC
Видео: 1024x428 at 24.000 fps, [email protected], ~1679 kbps
Аудио: AC3, 6 ch, ~384 kbps - | Русский | Зов мести / What Remains (2022) WEB-DLRip-AVC от DoMiNo & селезень | P | OKKO | Локализованная версия
Формат субтитров: softsub (SRT)

Авторизуйтесь для получения доступа к скачиванию

Нет аккаунта? Регистрация открыта и займёт меньше минуты

Вход Регистрация

x264 [info]: frame I: 1184 Avg QP: 14.29 size: 54608
x264 [info]: frame P: 28361 Avg QP: 16.45 size: 20886
x264 [info]: frame B: 116563 Avg QP: 18.12 size: 5309

General
Unique ID: 181966392381112934382244080347634718259 (0×88E573D0379195CECB6D95202C63D633)
Complete name: I: What.Remains.2022.MVO.WEB-DLRip.x264.seleZen.mkv
Format: Matroska
Format version: Version 4
File size: 1.46 GiB
Duration: 1 h 41 min
Overall bit rate: 2 063 kb/s
Frame rate: 24.000 FPS
Movie name: What.Remains.2022.MVO.WEB-DLRip.x264.seleZen
Encoded date: 21.09.2023 15:24:08 UTC
Writing application: mkvmerge v79.0 ('Funeral Pyres') 64-bit
Writing library: libebml v1.4.4 + libmatroska v1.7.1
Cover: Yes
Attachments: cover.jpg / small_cover.jpg

Video
ID: 1
Format: AVC
Format/Info: Advanced Video Codec
Format profile: [email protected]
Format settings: CABAC / 10 Ref Frames
Format settings, CABAC: Yes
Format settings, Reference: 10 frames
Codec ID: V_MPEG4/ISO/AVC
Duration: 1 h 41 min
Bit rate: 1 679 kb/s
Width: 1 024 pixels
Height: 428 pixels
Display aspect ratio: 2.40:1
Frame rate mode: Constant
Frame rate: 24.000 FPS
Color space: YUV
Chroma subsampling: 4:2:0
Bit depth: 8 bits
Scan type: Progressive
Bits/(Pixel*Frame): 0.160
Stream size: 1.19 GiB (81%)
Writing library: x264 core 164 r3107+58M ae98796 t_mod_New | by -=DoMiNo=- | X86_64]
Encoding settings: cabac=1 / ref=10 / deblock=1:-1:-1 / analyse=0×3:0×133 / me=umh / subme=10 / psy=1 / fade_compensate=0.00 / psy_rd=1.00:0.15 / mixed_ref=1 / me_range=32 / chroma_me=1 / trellis=2 / 8×8dct=1 / cqm=0 / deadzone=21,11 / fast_pskip=0 / chroma_qp_offset=-3 / threads=17 / lookahead_threads=3 / sliced_threads=0 / nr=0 / decimate=0 / interlaced=0 / bluray_compat=0 / constrained_intra=0 / fgo=0 / bframes=10 / b_pyramid=2 / b_adapt=2 / b_bias=0 / direct=3 / weightb=1 / open_gop=0 / weightp=2 / keyint=240 / keyint_min=24 / scenecut=40 / intra_refresh=0 / rc_lookahead=60 / rc=2pass / mbtree=0 / bitrate=1679 / ratetol=1.0 / qcomp=0.70 / qpmin=0:0:0 / qpmax=69:69:69 / qpstep=4 / cplxblur=20.0 / qblur=0.5 / vbv_maxrate=50000 / vbv_bufsize=62500 / nal_hrd=none / filler=0 / ip_ratio=1.20 / pb_ratio=1.30 / aq=1:0.90 / aq-sensitivity=10.00 / aq-factor=1.00:1.00:1.00 / aq2=0 / aq3=0
Language: English
Default: Yes
Forced: No

Audio
ID: 2
Format: AC-3
Format/Info: Audio Coding 3
Commercial name: Dolby Digital
Codec ID: A_AC3
Duration: 1 h 41 min
Bit rate mode: Constant
Bit rate: 384 kb/s
Channel (s): 6 channels
Channel layout: L R C LFE Ls Rs
Sampling rate: 48.0 kHz
Frame rate: 31.250 FPS (1536 SPF)
Compression mode: Lossy
Stream size: 279 MiB (19%)
Title: MVO [OKKO]
Language: Russian
Service kind: Complete Main
Default: Yes
Forced: No

Text
ID: 3
Format: UTF-8
Codec ID: S_TEXT/UTF8
Codec ID/Info: UTF-8 Plain Text
Duration: 1 h 33 min
Bit rate: 49 b/s
Frame rate: 0.148 FPS
Count of elements: 834
Stream size: 33.8 KiB (0%)
Title: Full
Language: Russian
Default: No
Forced: No

Menu
00:00:00.000: en: Глава 01
00:05:50.000: en: Глава 02
00:11:40.000: en: Глава 03
00:17:30.000: en: Глава 04
00:23:20.000: en: Глава 05
00:29:10.000: en: Глава 06
00:35:00.000: en: Глава 07
00:40:50.000: en: Глава 08
00:46:40.000: en: Глава 09
00:52:30.000: en: Глава 10
00:58:20.000: en: Глава 11
01:04:10.000: en: Глава 12
01:10:00.000: en: Глава 13
01:15:50.000: en: Глава 14
01:21:40.000: en: Глава 15
01:27:30.000: en: Глава 16
01:33:20.000: en: Глава 17
01:39:10.000: en: Глава 18

Другие фильмы
У данной публикации пока нет комментариев.
Будь первым, оставь своё мнение в комментариях!
Информация
Посетители, находящиеся в группе Гости, не могут оставлять комментарии к данной публикации.
Самый популярный релиз недели
Донаты
Мы в соц. сетях / RSS

Лучшие релизы месяца
Лучшие SD недели
Лучшие 720p недели
Лучшие 1080p недели
Лучшие 4K недели
Вы недавно смотрели
Реклама
Последние комментарии
...

Al1ksandr

21 июня 2024 21:02

...

Bonzo

14 июня 2024 14:52

...

rmzshka

13 июня 2024 17:48

...

rmzshka

13 июня 2024 12:24

...

LisNick

13 июня 2024 08:45

Реклама