+18

Жанна Дюбарри / Jeanne du Barry (2023) BDRip от DoMiNo & селезень | D

Информация о фильме
Название: Жанна Дюбарри
Оригинальное название: Jeanne du Barry
Год выхода: 2023
Жанр: Драма, биография, история
Режиссер: Майвенн
В ролях: Джонни Депп, Майвенн, Пьер Ришар, Ноэми Львовски, Мельвиль Пупо, Паскаль Греггори, Бенжамен Лаверн, Марианн Басле, Индия Хэйр, Давид Декрен, Луна Карпио

О фильме:
Рожденная в простой семье Жанна Бекю использует все свое обаяние, чтобы пробиться в высшее общество. Однажды граф Жан-Батист Дюбарри, обогатившийся не в последнюю очередь благодаря усилиям Жанны, организовывает для своей любовницы встречу с королем, которая превосходит все ее ожидания. Между Людовиком XV и Жанной вспыхивает любовь с первого взгляда. Куртизанка помогает королю заново ощутить вкус жизни, отныне он хочет быть лишь с ней и делает Жанну своей официальной фавориткой, что приводит к большому скандалу. «Жанна Дюбарри» — историческая драма об официальной фаворитке Людовика XV с Джонни Деппом и Майвенн в главных ролях.

Страна: Франция
Студия: Casa Kafka Pictures, France 2 Cinéma, France 3 Cinéma
Продолжительность: 01:56:36
Перевод: Дублированный | Мосфильм-Мастер
Субтитры: Русские (Full), английские - отдельно

Файл
Формат: AVI
Качество: BDRip
Видео: 704x384 at 24.000 fps, XviD 69, ~1410 kbps
Аудио: AC3, 6 ch, ~384 kbps - | Русский | Жанна Дюбарри / Jeanne du Barry (2023) BDRip от DoMiNo & селезень | D
Формат субтитров: softsub (SRT)

Авторизуйтесь для получения доступа к скачиванию

Нет аккаунта? Регистрация открыта и займёт меньше минуты

Вход Регистрация

General
Complete name : I:Jeanne.du.Barry.2023.DUB.BDRip.seleZen.avi
Format : AVI
Format/Info : Audio Video Interleave
Format settings : BitmapInfoHeader / WaveFormatEx
File size : 1.47 GiB
Duration : 1 h 56 min
Overall bit rate : 1 801 kb/s
Frame rate : 24.000 FPS
Movie name : Jeanne du Barry 2023 from seleZen
Writing application : VirtualDubModRus 1.5.10.2 (build 2542/release)
Writing library : VirtualDubMod build 2542/release

Video
ID : 0
Format : MPEG-4 Visual
Format profile : Advanced Simple@L5
Format settings : BVOP1 / Custom Matrix
Format settings, BVOP : 1
Format settings, QPel : No
Format settings, GMC : No warppoints
Format settings, Matrix : Custom
Codec ID : XVID
Codec ID/Hint : XviD
Duration : 1 h 56 min
Bit rate : 1 410 kb/s
Width : 704 pixels
Height : 384 pixels
Display aspect ratio : 1.85:1
Frame rate : 24.000 FPS
Color space : YUV
Chroma subsampling : 4:2:0
Bit depth : 8 bits
Scan type : Progressive
Compression mode : Lossy
Bits/(Pixel*Frame) : 0.217
Stream size : 1.15 GiB (78%)
Writing library : XviD 69

Audio
ID : 1
Format : AC-3
Format/Info : Audio Coding 3
Commercial name : Dolby Digital
Codec ID : 2000
Duration : 1 h 56 min
Bit rate mode : Constant
Bit rate : 384 kb/s
Channel(s) : 6 channels
Channel layout : L R C LFE Ls Rs
Sampling rate : 48.0 kHz
Frame rate : 31.250 FPS (1536 SPF)
Bit depth : 16 bits
Compression mode : Lossy
Stream size : 320 MiB (21%)
Alignment : Split across interleaves
Interleave, duration : 80 ms (1.92 video frames)
Interleave, preload duratio : 560 ms
Service kind : Complete Main

Другие фильмы
У данной публикации пока нет комментариев.
Будь первым, оставь своё мнение в комментариях!
Информация
Посетители, находящиеся в группе Гости, не могут оставлять комментарии к данной публикации.
Самый популярный релиз недели
Донаты
Мы в соц. сетях / RSS

Лучшие релизы месяца
Лучшие SD недели
Лучшие 720p недели
Лучшие 1080p недели
Лучшие 4K недели
Вы недавно смотрели
Реклама
Последние комментарии
...

fataxdd

16 июля 2024 07:13

...

Rustik99

12 июля 2024 10:11

...

Rograr

6 июля 2024 19:56

...

fenix

2 июля 2024 07:45

...

Fidelrus

28 июня 2024 13:53

Реклама