+6

Первый день моей жизни / Il primo giorno della mia vita / The First Day of My Life (2023) BDRip 1080p от селезень | D

Информация о фильме
Название: Первый день моей жизни
Оригинальное название: Il primo giorno della mia vita / The First Day of My Life
Год выхода: 2023
Жанр: комедия, драма
Режиссер: Паоло Дженовезе
В ролях: Тони Сервилло, Валерио Мастандреа, Маргерита Буй, Сара Серрайокко, Габриэле Кристини, Виттория Пуччини, Лино Гуанчале, Элена Льетти, Лидия Витале, Томас Трабакки

О фильме:
В одну из дождливых ночей сплелись судьбы четырех человек, принявших решение навсегда покинуть этот сложный и несправедливый мир. Одним из них стал циничный коуч Наполеоне, второй — бывшая гимнастка Эмилия, прикованная после травмы к инвалидному креслу, третьей — женщина-полицейский, впавшая в депрессию после смерти дочери. Последним участником этой скорбной группы стал подросток-блогер Даниэле, страдающий избыточным весом. Каждый из них уже успел сделать последний шаг. И теперь, неожиданно для всех действующих лиц, происходит их встреча с безымянным незнакомцем, который привозит героев в небольшой отель, где странному квартету суждено провести семь дней. Незнакомец, оказавшийся кем-то вроде ангела-хранителя, предлагает несчастным взять дополнительную неделю на обдумывание решения отправиться на тот свет. В попытке удержать своих подопечных на этом свете мужчина показывает героям, как жизнь будет продолжаться уже без них.

Выпущено: Италия / Lotus Productions, Medusa Produzione
Продолжительность: 02:01:19
Перевод: Дублированный | СиПиАй Филмз / CPI Films
Субтитры: Русские (Full), Английские, Итальянские

Файл
Формат: Matroska
Качество: BDRip 1080p [Исх.Il.primo.giorno.della.mia.vita.2023.1080p.Blu-ray.Remux.AVC.DTS-HD.MA.5.1-CiNEPHiLES]
Видео: 1920x804 at 24.000 fps, [email protected], ~12500 kbps
Аудио 1: AC3, 2 ch, ~256 kbps - | Русский | Первый день моей жизни / Il primo giorno della mia vita / The First Day of My Life (2023) BDRip 1080p от селезень | D
Аудио 2: AC3, 6 ch, ~640 kbps - | Итальянский |
Формат субтитров: softsub (SRT)

Авторизуйтесь для получения доступа к скачиванию

Нет аккаунта? Регистрация открыта и займёт меньше минуты

Вход Регистрация

General
Unique ID : 190118397346215453480814072498216927386 (0x8F0778B079AA68F11793A1419142809A)
Complete name : G:VideoGIl.primo.giorno.della.mia.vita.2023.BDRip.1080p.seleZen.mkv
Format : Matroska
Format version : Version 4
File size : 11.3 GiB
Duration : 2 h 1 min
Overall bit rate : 13.4 Mb/s
Frame rate : 24.000 FPS
Movie name : Il.primo.giorno.della.mia.vita.2023 from seleZen
Encoded date : 2023-10-21 17:18:41 UTC
Writing application : mkvmerge v63.0.0 ('Everything') 64-bit
Writing library : libebml v1.4.2 + libmatroska v1.6.4

Video
ID : 1
Format : AVC
Format/Info : Advanced Video Codec
Format profile : [email protected]
Format settings : CABAC / 5 Ref Frames
Format settings, CABAC : Yes
Format settings, Reference frames : 5 frames
Codec ID : V_MPEG4/ISO/AVC
Duration : 2 h 1 min
Bit rate : 12.5 Mb/s
Width : 1 920 pixels
Height : 804 pixels
Display aspect ratio : 2.40:1
Frame rate mode : Constant
Frame rate : 24.000 FPS
Color space : YUV
Chroma subsampling : 4:2:0
Bit depth : 8 bits
Scan type : Progressive
Bits/(Pixel*Frame) : 0.337
Stream size : 10.6 GiB (93%)
Writing library : x264 core 164 r3153 seleZen
Encoding settings : cabac=1 / ref=5 / deblock=1:-2:-2 / analyse=0x3:0x133 / me=umh / subme=10 / psy=1 / psy_rd=1.01:0.02 / mixed_ref=1 / me_range=48 / chroma_me=1 / trellis=2 / 8x8dct=1 / cqm=0 / deadzone=21,11 / fast_pskip=0 / chroma_qp_offset=-3 / threads=25 / lookahead_threads=4 / sliced_threads=0 / nr=0 / decimate=0 / interlaced=0 / bluray_compat=0 / constrained_intra=0 / bframes=9 / b_pyramid=2 / b_adapt=2 / b_bias=0 / direct=3 / weightb=1 / open_gop=0 / weightp=2 / keyint=240 / keyint_min=23 / scenecut=40 / intra_refresh=0 / rc_lookahead=60 / rc=2pass / mbtree=0 / bitrate=12500 / ratetol=1.0 / qcomp=0.60 / qpmin=0 / qpmax=51 / qpstep=4 / cplxblur=20.0 / qblur=0.5 / vbv_maxrate=50000 / vbv_bufsize=62500 / nal_hrd=none / filler=0 / ip_ratio=1.40 / pb_ratio=1.30 / aq=3:0.80
Language : English
Default : Yes
Forced : No

Audio #1
ID : 2
Format : AC-3
Format/Info : Audio Coding 3
Commercial name : Dolby Digital
Codec ID : A_AC3
Duration : 2 h 1 min
Bit rate mode : Constant
Bit rate : 256 kb/s
Channel(s) : 2 channels
Channel layout : L R
Sampling rate : 48.0 kHz
Frame rate : 31.250 FPS (1536 SPF)
Compression mode : Lossy
Stream size : 222 MiB (2%)
Title : Dub
Language : Russian
Service kind : Complete Main
Default : Yes
Forced : No

Audio #2
ID : 3
Format : AC-3
Format/Info : Audio Coding 3
Commercial name : Dolby Digital
Codec ID : A_AC3
Duration : 2 h 1 min
Bit rate mode : Constant
Bit rate : 640 kb/s
Channel(s) : 6 channels
Channel layout : L R C LFE Ls Rs
Sampling rate : 48.0 kHz
Frame rate : 31.250 FPS (1536 SPF)
Compression mode : Lossy
Stream size : 555 MiB (5%)
Title : Original
Language : Italian
Service kind : Complete Main
Default : No
Forced : No

Text #1
ID : 4
Format : UTF-8
Codec ID : S_TEXT/UTF8
Codec ID/Info : UTF-8 Plain Text
Duration : 1 h 53 min
Bit rate : 67 b/s
Frame rate : 0.159 FPS
Count of elements : 1087
Stream size : 56.2 KiB (0%)
Title : Full
Language : Russian
Default : No
Forced : No

Text #2
ID : 5
Format : UTF-8
Codec ID : S_TEXT/UTF8
Codec ID/Info : UTF-8 Plain Text
Duration : 1 h 53 min
Bit rate : 40 b/s
Frame rate : 0.165 FPS
Count of elements : 1130
Stream size : 33.6 KiB (0%)
Title : Full
Language : English
Default : No
Forced : No

Text #3
ID : 6
Format : UTF-8
Codec ID : S_TEXT/UTF8
Codec ID/Info : UTF-8 Plain Text
Duration : 1 h 52 min
Bit rate : 42 b/s
Frame rate : 0.158 FPS
Count of elements : 1069
Stream size : 35.2 KiB (0%)
Title : Full
Language : Italian
Default : No
Forced : No

Text #4
ID : 7
Format : UTF-8
Codec ID : S_TEXT/UTF8
Codec ID/Info : UTF-8 Plain Text
Duration : 1 h 54 min
Bit rate : 47 b/s
Frame rate : 0.177 FPS
Count of elements : 1209
Stream size : 39.9 KiB (0%)
Title : SDH
Language : Italian
Default : No
Forced : No

Menu
00:00:00.000 : en:Chapter 01
00:01:23.417 : en:Chapter 02
00:08:27.417 : en:Chapter 03
00:18:51.500 : en:Chapter 04
00:29:02.625 : en:Chapter 05
00:36:10.208 : en:Chapter 06
00:46:48.792 : en:Chapter 07
01:00:18.167 : en:Chapter 08
01:11:07.542 : en:Chapter 09
01:21:08.250 : en:Chapter 10
01:28:21.708 : en:Chapter 11
01:40:27.500 : en:Chapter 12
01:55:07.417 : en:Chapter 13

Другие фильмы
У данной публикации пока нет комментариев.
Будь первым, оставь своё мнение в комментариях!
Информация
Посетители, находящиеся в группе Гости, не могут оставлять комментарии к данной публикации.
Самый популярный релиз недели
Донаты
Мы в соц. сетях / RSS

Лучшие релизы месяца
Лучшие SD недели
Лучшие 720p недели
Лучшие 1080p недели
Лучшие 4K недели
Вы недавно смотрели
Реклама
Последние комментарии
...

zik77

2 марта 2024 07:26

...

korelov

23 февраля 2024 14:35

...

Desol

21 февраля 2024 00:28

...

diabloq

20 февраля 2024 14:17

...

slightlymad

17 февраля 2024 21:01

Реклама