+25

Пять ночей с Фредди / Five Nights at Freddy's (2023) HDRip-AVC от DoMiNo & селезень | D, P, A

Информация о фильме
Название: Пять ночей с Фредди
Оригинальное название: Five Nights at Freddy's
Год выпуска: 2023
Жанр: Ужасы, триллер, детектив
Режиссер: Эмма Тамми / Emma Tammi
В ролях: Джош Хатчерсон, Пайпер Рубио, Элизабет Лэил, Мэттью Лиллард, Мэри Стюарт Мастерсон, Кэт Коннер Стерлинг, Кристиан Стоукс, Джозеф Поликуин, Лукас Грант, Грант Фили

О фильме:
Майк Шмидт устраивается работать охранником в «Freddy Fazbear’s Pizza» — когда-то успешный, но ныне заброшенный семейный развлекательный центр. В первую ночь на работе он понимает, что ночную смену будет не так-то просто выдержать.

Выпущено: США, Universal Pictures, Blumhouse Productions, ScottGames
Продолжительность: 01:49:25
Перевод(ы):
#1: Дублированный (неофициальный) | TVShows
#2: Дублированный (неофициальный) | Red Head Sound
#3: Дублированный (неофициальный) | HDRezka Studio
#4: Профессиональный многоголосый | LostFilm
#5: Авторский | М.Яроцкий
Субтитры: Русские (Forced, full), английские

Файл
Формат: Matroska
Качество: HDRip-AVC
Видео: 1024x512 at 23.976 fps, [email protected], ~1677 kbps
Аудио 1: AC3, 6 ch, ~448 kbps - | Русский | Пять ночей с Фредди / Five Nights at Freddy's (2023) HDRip-AVC от DoMiNo & селезень | D, P, A | TVShows
Аудио 2: AC3, 6 ch, ~448 kbps - | Русский | | Red Head Sound
Аудио 3: AC3, 2 ch, ~192 kbps - | Русский | | HDRezka Studio
Аудио 4: AC3, 2 ch, ~384 kbps - | Русский | | LostFilm
Аудио 5: AC3, 6 ch, ~384 kbps - | Русский | | М.Яроцкий
Аудио 6: AC3, 6 ch, ~448 kbps - | Английский | | Original
Формат субтитров: softsub (SRT)

Авторизуйтесь для получения доступа к скачиванию

Нет аккаунта? Регистрация открыта и займёт меньше минуты

Вход Регистрация

x264 [info]: frame I:1443 Avg QP:12.50 size: 67069
x264 [info]: frame P:31384 Avg QP:13.86 size: 20666
x264 [info]: frame B:124580 Avg QP:16.35 size: 5062

General
Unique ID : 208795785257118632922125471197544464367 (0x9D149B02A0D1D0D7030C79F386563FEF)
Complete name : R:Five.Nights.at.Freddys.2023.x264.seleZen.mkv
Format : Matroska
Format version : Version 4
File size : 3.04 GiB
Duration : 1 h 49 min
Overall bit rate : 3 984 kb/s
Frame rate : 23.976 FPS
Movie name : Five.Nights.at.Freddys.2023.x264.seleZen
Encoded date : 2023-12-08 11:12:15 UTC
Writing application : mkvmerge v81.0 ('Milliontown') 64-bit
Writing library : libebml v1.4.4 + libmatroska v1.7.1
Cover : Yes
Attachments : cover.jpg / small_cover.jpg

Video
ID : 1
Format : AVC
Format/Info : Advanced Video Codec
Format profile : [email protected]
Format settings : CABAC / 12 Ref Frames
Format settings, CABAC : Yes
Format settings, Reference : 12 frames
Codec ID : V_MPEG4/ISO/AVC
Duration : 1 h 49 min
Bit rate : 1 677 kb/s
Width : 1 024 pixels
Height : 512 pixels
Display aspect ratio : 2.000
Frame rate mode : Constant
Frame rate : 23.976 (24000/1001) FPS
Color space : YUV
Chroma subsampling : 4:2:0
Bit depth : 8 bits
Scan type : Progressive
Bits/(Pixel*Frame) : 0.133
Stream size : 1.28 GiB (42%)
Title : -=DoMiNo=-
Writing library : x264 core 164 r3172 -DoMiNo
Encoding settings : cabac=1 / ref=12 / deblock=1:-2:-2 / analyse=0x3:0x133 / me=umh / subme=11 / psy=1 / psy_rd=1.05:0.05 / mixed_ref=1 / me_range=32 / chroma_me=1 / trellis=2 / 8x8dct=1 / cqm=0 / deadzone=21,11 / fast_pskip=0 / chroma_qp_offset=-3 / threads=16 / lookahead_threads=4 / sliced_threads=0 / nr=0 / decimate=1 / interlaced=0 / bluray_compat=0 / constrained_intra=0 / bframes=14 / b_pyramid=2 / b_adapt=2 / b_bias=0 / direct=3 / weightb=1 / open_gop=0 / weightp=2 / keyint=250 / keyint_min=23 / scenecut=40 / intra_refresh=0 / rc_lookahead=60 / rc=crf / mbtree=0 / crf=17.5 / qcomp=0.60 / qpmin=0 / qpmax=69 / qpstep=4 / vbv_maxrate=50000 / vbv_bufsize=62500 / crf_max=0.0 / nal_hrd=none / filler=0 / ip_ratio=1.40 / pb_ratio=1.30 / aq=3:0.90
Language : English
Default : Yes
Forced : No

Audio #1
ID : 2
Format : AC-3
Format/Info : Audio Coding 3
Commercial name : Dolby Digital
Codec ID : A_AC3
Duration : 1 h 49 min
Bit rate mode : Constant
Bit rate : 448 kb/s
Channel(s) : 6 channels
Channel layout : L R C LFE Ls Rs
Sampling rate : 48.0 kHz
Frame rate : 31.250 FPS (1536 SPF)
Compression mode : Lossy
Stream size : 351 MiB (11%)
Title : Dub_TVShows
Language : Russian
Service kind : Complete Main
Default : Yes
Forced : No

Audio #2
ID : 3
Format : AC-3
Format/Info : Audio Coding 3
Commercial name : Dolby Digital
Codec ID : A_AC3
Duration : 1 h 49 min
Bit rate mode : Constant
Bit rate : 448 kb/s
Channel(s) : 6 channels
Channel layout : L R C LFE Ls Rs
Sampling rate : 48.0 kHz
Frame rate : 31.250 FPS (1536 SPF)
Compression mode : Lossy
Stream size : 351 MiB (11%)
Title : Dub_Red Head Sound
Language : Russian
Service kind : Complete Main
Default : No
Forced : No

Audio #3
ID : 4
Format : AC-3
Format/Info : Audio Coding 3
Commercial name : Dolby Digital
Codec ID : A_AC3
Duration : 1 h 49 min
Bit rate mode : Constant
Bit rate : 192 kb/s
Channel(s) : 2 channels
Channel layout : L R
Sampling rate : 48.0 kHz
Frame rate : 31.250 FPS (1536 SPF)
Compression mode : Lossy
Stream size : 150 MiB (5%)
Title : Dub_HDRezka Dtudio
Language : Russian
Service kind : Complete Main
Default : No
Forced : No

Audio #4
ID : 5
Format : AC-3
Format/Info : Audio Coding 3
Commercial name : Dolby Digital
Codec ID : A_AC3
Duration : 1 h 49 min
Bit rate mode : Constant
Bit rate : 384 kb/s
Channel(s) : 2 channels
Channel layout : L R
Sampling rate : 48.0 kHz
Frame rate : 31.250 FPS (1536 SPF)
Compression mode : Lossy
Stream size : 300 MiB (10%)
Title : MVO_LostFilm
Language : Russian
Service kind : Complete Main
Default : No
Forced : No

Audio #5
ID : 6
Format : AC-3
Format/Info : Audio Coding 3
Commercial name : Dolby Digital
Codec ID : A_AC3
Duration : 1 h 49 min
Bit rate mode : Constant
Bit rate : 384 kb/s
Channel(s) : 6 channels
Channel layout : L R C LFE Ls Rs
Sampling rate : 48.0 kHz
Frame rate : 31.250 FPS (1536 SPF)
Compression mode : Lossy
Stream size : 300 MiB (10%)
Title : AVO_М.Яроцкий
Language : Russian
Service kind : Complete Main
Default : No
Forced : No

Audio #6
ID : 7
Format : AC-3
Format/Info : Audio Coding 3
Commercial name : Dolby Digital
Codec ID : A_AC3
Duration : 1 h 49 min
Bit rate mode : Constant
Bit rate : 448 kb/s
Channel(s) : 6 channels
Channel layout : L R C LFE Ls Rs
Sampling rate : 48.0 kHz
Frame rate : 31.250 FPS (1536 SPF)
Compression mode : Lossy
Stream size : 351 MiB (11%)
Title : Original
Language : English
Service kind : Complete Main
Default : No
Forced : No

Text #1
ID : 8
Format : UTF-8
Codec ID : S_TEXT/UTF8
Codec ID/Info : UTF-8 Plain Text
Duration : 1 h 40 min
Bit rate : 1 b/s
Frame rate : 0.003 FPS
Count of elements : 20
Stream size : 757 Bytes (0%)
Title : Forced
Language : Russian
Default : No
Forced : No

Text #2
ID : 9
Format : UTF-8
Codec ID : S_TEXT/UTF8
Codec ID/Info : UTF-8 Plain Text
Duration : 1 h 40 min
Bit rate : 67 b/s
Frame rate : 0.180 FPS
Count of elements : 1086
Stream size : 49.9 KiB (0%)
Title : Full
Language : Russian
Default : No
Forced : No

Text #3
ID : 10
Format : UTF-8
Codec ID : S_TEXT/UTF8
Codec ID/Info : UTF-8 Plain Text
Duration : 1 h 49 min
Bit rate : 52 b/s
Frame rate : 0.257 FPS
Count of elements : 1682
Stream size : 42.3 KiB (0%)
Title : SDH
Language : English
Default : No
Forced : No

Menu
00:00:00.000 : en:Chapter 01
00:05:02.719 : en:Chapter 02
00:07:52.764 : en:Chapter 03
00:11:14.966 : en:Chapter 04
00:17:57.910 : en:Chapter 05
00:21:17.193 : en:Chapter 06
00:27:17.261 : en:Chapter 07
00:31:17.793 : en:Chapter 08
00:38:38.691 : en:Chapter 09
00:46:59.316 : en:Chapter 10
00:53:22.449 : en:Chapter 11
01:00:53.483 : en:Chapter 12
01:04:40.585 : en:Chapter 13
01:11:58.272 : en:Chapter 14
01:13:58.225 : en:Chapter 15
01:19:55.749 : en:Chapter 16
01:27:58.899 : en:Chapter 17
01:33:19.260 : en:Chapter 18
01:40:57.927 : en:Chapter 19
01:44:15.124 : en:Chapter 20

Другие фильмы
У данной публикации пока нет комментариев.
Будь первым, оставь своё мнение в комментариях!
Информация
Посетители, находящиеся в группе Гости, не могут оставлять комментарии к данной публикации.
Самый популярный релиз недели
Донаты
Мы в соц. сетях / RSS

Лучшие релизы месяца
Лучшие SD недели
Лучшие 720p недели
Лучшие 1080p недели
Лучшие 4K недели
Вы недавно смотрели
Реклама
Последние комментарии
...

zik77

2 марта 2024 07:26

...

korelov

23 февраля 2024 14:35

...

Desol

21 февраля 2024 00:28

...

diabloq

20 февраля 2024 14:17

...

slightlymad

17 февраля 2024 21:01

Реклама