+18

Оппенгеймер / Oppenheimer (2023) BDRip 1080p от селезень | IMAX | LineFilm

Информация о фильме
Название: Оппенгеймер
Оригинальное название: Oppenheimer
Год выхода: 2023
Жанр: биография, драма, история
Режиссер: Кристофер Нолан
В ролях: Киллиан Мерфи, Эмили Блант, Мэтт Дэймон, Роберт Дауни мл., Флоренс Пью, Джош Хартнетт, Кейси Аффлек, Рами Малек, Кеннет Брана, Бенни Сэфди

О фильме: История жизни американского физика Роберта Оппенгеймера, который стоял во главе первых разработок ядерного оружия.

Страна: США, Великобритания
Студия: Atlas Entertainment, Syncopy, Universal Pictures
Продолжительность: 03:00:22
Перевод: Профессиональный многоголосый | LineFilm

Качество: BDRip 1080p
Видео: MPEG-4 AVC, 1920x1080, 10.5 Mbit/s, 23.976 fps
Аудио #01: 48 kHz, AC3, 5.1, 640 Kbps | LineFilm | RUS |Оппенгеймер / Oppenheimer (2023) BDRip 1080p от селезень | IMAX | LineFilm
Аудио #02: 48 kHz, E-AC3, 5.1, 1024 Kbps | LineFilm | RUS |
Аудио #03: 48 kHz, AC3, 5.1, 640 Kbps | Оригинал | ENG |
Субтитры: Русские (Full), английские

Оппенгеймер / Oppenheimer (2023) BDRip 1080p от селезень | IMAX | LineFilm

Авторизуйтесь для получения доступа к скачиванию

Нет аккаунта? Регистрация открыта и займёт меньше минуты

Вход Регистрация

General
Unique ID : 167479777583577543389432402623618871931 (0x7DFF6E8F36748166D5318F043613F27B)
Complete name : H:\VideoH\Oppenheimer.2023.BDRip.1080p.seleZen.mkv
Format : Matroska
Format version : Version 4
File size : 16.1 GiB
Duration : 3 h 0 min
Overall bit rate : 12.8 Mb/s
Frame rate : 23.976 FPS
Movie name : Oppenheimer 2023 from seleZen
Encoded date : 2023-11-09 06:34:53 UTC
Writing application : mkvmerge v79.0 ('Funeral Pyres') 64-bit
Writing library : libebml v1.4.4 + libmatroska v1.7.1

Video
ID : 1
Format : AVC
Format/Info : Advanced Video Codec
Format profile : [email protected]
Format settings : CABAC / 4 Ref Frames
Format settings, CABAC : Yes
Format settings, Reference : 4 frames
Codec ID : V_MPEG4/ISO/AVC
Duration : 3 h 0 min
Bit rate : 10.5 Mb/s
Width : 1 920 pixels
Height : 1 080 pixels
Display aspect ratio : 16:9
Frame rate mode : Constant
Frame rate : 23.976 (24000/1001) FPS
Color space : YUV
Chroma subsampling : 4:2:0
Bit depth : 8 bits
Scan type : Progressive
Bits/(Pixel*Frame) : 0.211
Stream size : 13.2 GiB (82%)
Writing library : x264 core 164 r3156+57M dac90dd t_mod_New [(8 & 10) seleZen X86_64]
Encoding settings : cabac=1 / ref=4 / deblock=1:-2:-2 / analyse=0x3:0x133 / me=umh / subme=10 / psy=1 / fade_compensate=0.00 / psy_rd=1.00:0.00 / mixed_ref=1 / me_range=32 / chroma_me=1 / trellis=2 / 8x8dct=1 / cqm=0 / deadzone=21,11 / fast_pskip=0 / chroma_qp_offset=-2 / threads=34 / lookahead_threads=5 / sliced_threads=0 / nr=0 / decimate=0 / interlaced=0 / bluray_compat=0 / constrained_intra=0 / fgo=0 / bframes=9 / b_pyramid=2 / b_adapt=2 / b_bias=0 / direct=3 / weightb=1 / open_gop=0 / weightp=2 / keyint=240 / keyint_min=23 / scenecut=40 / intra_refresh=0 / rc_lookahead=60 / rc=2pass / mbtree=0 / bitrate=10500 / ratetol=1.0 / qcomp=0.60 / qpmin=0:0:0 / qpmax=51:51:51 / qpstep=4 / cplxblur=20.0 / qblur=0.5 / vbv_maxrate=50000 / vbv_bufsize=62500 / nal_hrd=none / filler=0 / ip_ratio=1.40 / pb_ratio=1.30 / aq=3:0.80 / aq-sensitivity=10.00 / aq-factor=1.00:1.00:1.00:1.00 / aq2=0 / aq3=0
Language : English
Default : Yes
Forced : No

Audio #1
ID : 2
Format : AC-3
Format/Info : Audio Coding 3
Commercial name : Dolby Digital
Codec ID : A_AC3
Duration : 3 h 0 min
Bit rate mode : Constant
Bit rate : 640 kb/s
Channel(s) : 6 channels
Channel layout : L R C LFE Ls Rs
Sampling rate : 48.0 kHz
Frame rate : 31.250 FPS (1536 SPF)
Compression mode : Lossy
Stream size : 826 MiB (5%)
Title : MVO [LineFilm]
Language : Russian
Service kind : Complete Main
Default : Yes
Forced : No

Audio #2
ID : 3
Format : E-AC-3
Format/Info : Enhanced AC-3
Commercial name : Dolby Digital Plus
Codec ID : A_EAC3
Duration : 3 h 0 min
Bit rate mode : Constant
Bit rate : 1 024 kb/s
Channel(s) : 6 channels
Channel layout : L R C LFE Ls Rs
Sampling rate : 48.0 kHz
Frame rate : 31.250 FPS (1536 SPF)
Compression mode : Lossy
Stream size : 1.29 GiB (8%)
Title : MVO [LineFilm]
Language : Russian
Service kind : Complete Main
Default : No
Forced : No

Audio #3
ID : 4
Format : AC-3
Format/Info : Audio Coding 3
Commercial name : Dolby Digital
Codec ID : A_AC3
Duration : 3 h 0 min
Bit rate mode : Constant
Bit rate : 640 kb/s
Channel(s) : 6 channels
Channel layout : L R C LFE Ls Rs
Sampling rate : 48.0 kHz
Frame rate : 31.250 FPS (1536 SPF)
Compression mode : Lossy
Stream size : 826 MiB (5%)
Title : Original
Language : English
Service kind : Complete Main
Default : No
Forced : No

Text #1
ID : 5
Format : UTF-8
Codec ID : S_TEXT/UTF8
Codec ID/Info : UTF-8 Plain Text
Duration : 2 h 52 min
Bit rate : 150 b/s
Frame rate : 0.271 FPS
Count of elements : 2800
Stream size : 190 KiB (0%)
Title : Full [LineFilm]
Language : Russian
Default : No
Forced : No

Text #2
ID : 6
Format : UTF-8
Codec ID : S_TEXT/UTF8
Codec ID/Info : UTF-8 Plain Text
Duration : 2 h 52 min
Bit rate : 84 b/s
Frame rate : 0.282 FPS
Count of elements : 2908
Stream size : 107 KiB (0%)
Title : Full
Language : English (US)
Default : No
Forced : No

Text #3
ID : 7
Format : UTF-8
Codec ID : S_TEXT/UTF8
Codec ID/Info : UTF-8 Plain Text
Duration : 2 h 53 min
Bit rate : 89 b/s
Frame rate : 0.299 FPS
Count of elements : 3107
Stream size : 114 KiB (0%)
Title : SDH
Language : English (US)
Default : No
Forced : No

Menu
00:00:00.000 : Chapter 01
00:07:23.526 : Chapter 02
00:16:36.078 : Chapter 03
00:27:23.976 : Chapter 04
00:36:01.534 : Chapter 05
00:42:51.652 : Chapter 06
00:52:31.607 : Chapter 07
00:59:56.593 : Chapter 08
01:10:53.541 : Chapter 09
01:17:58.215 : Chapter 10
01:24:14.341 : Chapter 11
01:36:07.011 : Chapter 12
01:43:06.931 : Chapter 13
01:51:19.590 : Chapter 14
02:00:18.378 : Chapter 15
02:09:02.193 : Chapter 16
02:17:08.637 : Chapter 17
02:32:04.949 : Chapter 18
02:47:40.634 : Chapter 19
02:54:12.442 : Chapter 20

Другие фильмы
У данной публикации пока нет комментариев.
Будь первым, оставь своё мнение в комментариях!
Информация
Посетители, находящиеся в группе Гости, не могут оставлять комментарии к данной публикации.
Самый популярный релиз недели
Донаты
Мы в соц. сетях / RSS

Лучшие релизы месяца
Лучшие SD недели
Лучшие 720p недели
Лучшие 1080p недели
Лучшие 4K недели
Вы недавно смотрели
Реклама
Последние комментарии
...

rmzshka

15 мая 2024 13:43

...

Andrey_Vladimirovich

13 мая 2024 18:12

...

Robot

13 мая 2024 16:53

...

rmzshka

13 мая 2024 16:21

...

supermehanik

13 мая 2024 02:03

Реклама