+16

Оппенгеймер / Oppenheimer (2023) BDRip-AVC от DoMiNo & селезень | D, A | Red Head Sound, TVShows, Сербин | IMAX

Информация о фильме
Название: Оппенгеймер
Оригинальное название: Oppenheimer
Год выхода: 2023
Жанр: биография, драма, история
Режиссер: Кристофер Нолан
В ролях: Киллиан Мерфи, Эмили Блант, Мэтт Дэймон, Роберт Дауни мл., Флоренс Пью, Джош Хартнетт, Кейси Аффлек, Рами Малек, Кеннет Брана, Бенни Сэфди

О фильме:
История физика-теоретика Джулиуса Роберта Оппенгеймера, считающегося «отцом атомной бомбы». В 1940-х годах в рамках «Манхэттенского проекта» он руководил разработкой первого ядерного оружия в Лос-Аламосской национальной лаборатории. «Оппенгеймер» (2023) — биографическая драма Кристофера Нолана с Киллианом Мерфи в главной роли, основанная на книге «Американский Прометей: Триумф и трагедия Дж. Роберта Оппенгеймера» Кая Берда и Мартина Дж. Шервина.

Страна: США, Великобритания
Студия: Atlas Entertainment, Syncopy, Universal Pictures
Продолжительность: 03:00:22
Перевод 1: Дублированный | Red Head Sound
Перевод 2: Дублированный | TVShows
Перевод 3: Авторский (одноголосый закадровый) | Ю.Сербин
Субтитры: Русские (Forced, full), английские

Файл
Формат: Matroska
Качество: BDRip-AVC
Видео: 1024x576 at 23.976 fps, [email protected], ~1713 kbps
Аудио 1: AC3, 6 ch, ~448 kbps - | Русский | Оппенгеймер / Oppenheimer (2023) BDRip-AVC от DoMiNo & селезень | D, A | Red Head Sound, TVShows, Сербин | IMAX | Red Head Sound
Аудио 2: AC3, 6 ch, ~448 kbps - | Русский | | TVShows
Аудио 3: AC3, 6 ch, ~384 kbps - | Русский | | Ю.Сербин
Аудио 4: AC3, 6 ch, ~448 kbps - | Английский | | Original
Формат субтитров: softsub (SRT)

Авторизуйтесь для получения доступа к скачиванию

Нет аккаунта? Регистрация открыта и займёт меньше минуты

Вход Регистрация

x264 [info]: frame I: 2967 Avg QP: 13.46 size: 63683
x264 [info]: frame P: 50270 Avg QP: 15.86 size: 20118
x264 [info]: frame B: 206235 Avg QP: 18.37 size: 5416

General
Unique ID: 50784609003907936704189840566822945406 (0×2634C28A14F6925BAC33A5220C70C27E)
Complete name: R: Oppenheimer.2023.BDRip.x264.seleZen.mkv
Format: Matroska
Format version: Version 4
File size: 4.34 GiB
Duration: 3 h 0 min
Overall bit rate: 3 444 kb/s
Frame rate: 23.976 FPS
Movie name: Oppenheimer.2023.BDRip.x264.seleZen
Encoded date: 01.12.2023 07:31:47 UTC
Writing application: mkvmerge v80.0 ('Roundabout') 64-bit
Writing library: libebml v1.4.4 + libmatroska v1.7.1
Cover: Yes
Attachments: cover.jpg / small_cover.jpg

Video
ID: 1
Format: AVC
Format/Info: Advanced Video Codec
Format profile: [email protected]
Format settings: CABAC / 12 Ref Frames
Format settings, CABAC: Yes
Format settings, Reference: 12 frames
Codec ID: V_MPEG4/ISO/AVC
Duration: 3 h 0 min
Bit rate: 1 713 kb/s
Width: 1 024 pixels
Height: 576 pixels
Display aspect ratio: 16:9
Frame rate mode: Constant
Frame rate: 23.976 (24000/1001) FPS
Color space: YUV
Chroma subsampling: 4:2:0
Bit depth: 8 bits
Scan type: Progressive
Bits/(Pixel*Frame): 0.121
Stream size: 2.16 GiB (50%)
Title: -=DoMiNo=-
Writing library: x264 core 164 r3156+57M dac90dd t_mod_New [(8 & 10)-DoMiNo- X86_64]
Encoding settings: cabac=1 / ref=12 / deblock=1:-2:-2 / analyse=0×3:0×133 / me=umh / subme=10 / psy=1 / fade_compensate=0.00 / psy_rd=1.03:0.05 / mixed_ref=1 / me_range=32 / chroma_me=1 / trellis=2 / 8×8dct=1 / cqm=0 / deadzone=21,11 / fast_pskip=0 / chroma_qp_offset=-3 / threads=18 / lookahead_threads=4 / sliced_threads=0 / nr=0 / decimate=1 / interlaced=0 / bluray_compat=0 / constrained_intra=0 / fgo=0 / bframes=12 / b_pyramid=2 / b_adapt=2 / b_bias=0 / direct=3 / weightb=1 / open_gop=0 / weightp=2 / keyint=250 / keyint_min=23 / scenecut=40 / intra_refresh=0 / rc_lookahead=60 / rc=crf / mbtree=0 / crf=17.8000 / qcomp=0.60 / qpmin=0:0:0 / qpmax=69:69:69 / qpstep=4 / vbv_maxrate=50000 / vbv_bufsize=62500 / crf_max=0.0 / nal_hrd=none / filler=0 / ip_ratio=1.40 / pb_ratio=1.30 / aq=3:0.80 / aq-sensitivity=10.00 / aq-factor=1.00:1.00:1.00:1.00 / aq2=0 / aq3=0
Language: English
Default: Yes
Forced: No
Color range: Limited
Matrix coefficients: BT.709

Audio #1
ID: 2
Format: AC-3
Format/Info: Audio Coding 3
Commercial name: Dolby Digital
Codec ID: A_AC3
Duration: 3 h 0 min
Bit rate mode: Constant
Bit rate: 448 kb/s
Channel (s): 6 channels
Channel layout: L R C LFE Ls Rs
Sampling rate: 48.0 kHz
Frame rate: 31.250 FPS (1536 SPF)
Compression mode: Lossy
Stream size: 578 MiB (13%)
Title: DUB — Red Head Sound
Language: Russian
Service kind: Complete Main
Default: Yes
Forced: No

Audio #2
ID: 3
Format: AC-3
Format/Info: Audio Coding 3
Commercial name: Dolby Digital
Codec ID: A_AC3
Duration: 3 h 0 min
Bit rate mode: Constant
Bit rate: 448 kb/s
Channel (s): 6 channels
Channel layout: L R C LFE Ls Rs
Sampling rate: 48.0 kHz
Frame rate: 31.250 FPS (1536 SPF)
Compression mode: Lossy
Stream size: 578 MiB (13%)
Title: DUB -TVShows
Language: Russian
Service kind: Complete Main
Default: No
Forced: No

Audio #3
ID: 4
Format: AC-3
Format/Info: Audio Coding 3
Commercial name: Dolby Digital
Codec ID: A_AC3
Duration: 3 h 0 min
Bit rate mode: Constant
Bit rate: 384 kb/s
Channel (s): 6 channels
Channel layout: L R C LFE Ls Rs
Sampling rate: 48.0 kHz
Frame rate: 31.250 FPS (1536 SPF)
Compression mode: Lossy
Stream size: 495 MiB (11%)
Title: Ю.Сербин
Language: Russian
Service kind: Complete Main
Default: No
Forced: No

Audio #4
ID: 5
Format: AC-3
Format/Info: Audio Coding 3
Commercial name: Dolby Digital
Codec ID: A_AC3
Duration: 3 h 0 min
Bit rate mode: Constant
Bit rate: 448 kb/s
Channel (s): 6 channels
Channel layout: L R C LFE Ls Rs
Sampling rate: 48.0 kHz
Frame rate: 31.250 FPS (1536 SPF)
Compression mode: Lossy
Stream size: 578 MiB (13%)
Title: Original
Language: English
Service kind: Complete Main
Default: No
Forced: No

Text #1
ID: 6
Format: UTF-8
Codec ID: S_TEXT/UTF8
Codec ID/Info: UTF-8 Plain Text
Duration: 2 h 12 min
Bit rate: 0 b/s
Frame rate: 0.002 FPS
Count of elements: 14
Stream size: 886 Bytes (0%)
Title: Forced
Language: Russian
Default: No
Forced: No

Text #2
ID: 7
Format: UTF-8
Codec ID: S_TEXT/UTF8
Codec ID/Info: UTF-8 Plain Text
Duration: 2 h 52 min
Bit rate: 150 b/s
Frame rate: 0.271 FPS
Count of elements: 2800
Stream size: 190 KiB (0%)
Title: Full [LineFilm]
Language: Russian
Default: No
Forced: No

Text #3
ID: 8
Format: UTF-8
Codec ID: S_TEXT/UTF8
Codec ID/Info: UTF-8 Plain Text
Duration: 2 h 52 min
Bit rate: 84 b/s
Frame rate: 0.282 FPS
Count of elements: 2908
Stream size: 107 KiB (0%)
Title: Full
Language: English (US)
Default: No
Forced: No

Text #4
ID: 9
Format: UTF-8
Codec ID: S_TEXT/UTF8
Codec ID/Info: UTF-8 Plain Text
Duration: 2 h 53 min
Bit rate: 89 b/s
Frame rate: 0.299 FPS
Count of elements: 3107
Stream size: 114 KiB (0%)
Title: SDH
Language: English (US)
Default: No
Forced: No

Menu
00:00:00.000: Chapter 01
00:07:23.526: Chapter 02
00:16:36.078: Chapter 03
00:27:23.976: Chapter 04
00:36:01.534: Chapter 05
00:42:51.652: Chapter 06
00:52:31.607: Chapter 07
00:59:56.593: Chapter 08
01:10:53.541: Chapter 09
01:17:58.215: Chapter 10
01:24:14.341: Chapter 11
01:36:07.011: Chapter 12
01:43:06.931: Chapter 13
01:51:19.590: Chapter 14
02:00:18.378: Chapter 15
02:09:02.193: Chapter 16
02:17:08.637: Chapter 17
02:32:04.949: Chapter 18
02:47:40.634: Chapter 19
02:54:12.442: Chapter 20

Другие фильмы
У данной публикации пока нет комментариев.
Будь первым, оставь своё мнение в комментариях!
Информация
Посетители, находящиеся в группе Гости, не могут оставлять комментарии к данной публикации.
Самый популярный релиз недели
Донаты
Мы в соц. сетях / RSS

Лучшие релизы месяца
Лучшие SD недели
Лучшие 720p недели
Лучшие 1080p недели
Лучшие 4K недели
Вы недавно смотрели
Реклама
Последние комментарии
...

zik77

2 марта 2024 07:26

...

korelov

23 февраля 2024 14:35

...

Desol

21 февраля 2024 00:28

...

diabloq

20 февраля 2024 14:17

...

slightlymad

17 февраля 2024 21:01

Реклама