+7

Прирожденные убийцы / Natural Born Killers (1994) UHD BDRemux 2160p от селезень | 4K | HDR | Dolby Vision Profile 8 | P | Режиссерская версия

Информация о фильме
Название: Прирожденные убийцы
Оригинальное название: Natural Born Killers
Год выхода: 1994
Жанр: боевик, драма, криминал
Режиссер: Оливер Стоун
В ролях: Вуди Харрельсон, Джульетт Льюис, Роберт Дауни мл., Томми Ли Джонс, Том Сайзмор, Родни Дейнджерфилд, Эверетт Куинтон, Джаред Харрис, Прюитт Тэйлор Винс, Эди Макклёрг

О фильме: Пара молодых влюблённых, Меллори и Микки, словно подражая легендарным Бонни и Клайду, колесит по Америке и убивает всех, кто попадается на пути. В конце концов парочку хватают и сажают в тюрьму. Однако череда нелепых и трагических совпадений снова позволяет прирождённым убийцам убивать дальше.

Страна: США
Студия: Alcor Films, Ixtlan Corporation, J D Productions, Regency Television, Warner Bros.
Продолжительность: 02:01:55
Перевод: Профессиональный многоголосый | Neoclassica

Качество: BDRemux 2160p
Видео: 3840x2160 at 24.000 fps, MPEG-H HEVC HDR Video, 76500 kbps avg
Аудио #01: 48 kHz, AC3, 5.1, 384 Kbps | Профессиональный многоголосый | Neoclassica | RUS |Прирожденные убийцы / Natural Born Killers (1994) UHD BDRemux 2160p от селезень | 4K | HDR | Dolby Vision Profile 8 | P | Режиссерская версия
Аудио #02: 48 kHz, AC3, 5.1, 384 Kbps | Профессиональный многоголосый | Neoclassica 18+ | RUS |
Аудио #03: 48 kHz, DTS-HD MA, 5.1, 4227 Kbps | Оригинал | ENG |
Субтитры: Русские (Full), английские

Прирожденные убийцы / Natural Born Killers (1994) UHD BDRemux 2160p от селезень | 4K | HDR | Dolby Vision Profile 8 | P | Режиссерская версия

Авторизуйтесь для получения доступа к скачиванию

Нет аккаунта? Регистрация открыта и займёт меньше минуты

Вход Регистрация

General
Unique ID : 310369084877870119913341174417671911259 (0xE97EE953FD6F3E918CA01DE4A9CCF75B)
Complete name : H:\VideoH\Natural.Born.Killers.1994.BDREMUX.2160p.HDR.DVP8.seleZen.mkv
Format : Matroska
Format version : Version 4
File size : 69.4 GiB
Duration : 2 h 1 min
Overall bit rate mode : Variable
Overall bit rate : 81.5 Mb/s
Frame rate : 24.000 FPS
Movie name : Natural Born Killers 1994 from seleZen
Encoded date : 2023-11-17 15:51:50 UTC
Writing application : mkvmerge v79.0 ('Funeral Pyres') 64-bit
Writing library : libebml v1.4.4 + libmatroska v1.7.1

Video
ID : 1
ID in the original source m : 4117 (0x1015)
Format : HEVC
Format/Info : High Efficiency Video Coding
Format profile : Main [email protected]@High
HDR format : Dolby Vision, Version 1.0, dvhe.08.06, BL+RPU, Blu-ray compatible / SMPTE ST 2086, HDR10 compatible
Codec ID : V_MPEGH/ISO/HEVC
Duration : 2 h 1 min
Bit rate : 76.5 Mb/s
Width : 3 840 pixels
Height : 2 160 pixels
Display aspect ratio : 16:9
Frame rate mode : Constant
Frame rate : 24.000 FPS
Color space : YUV
Chroma subsampling : 4:2:0 (Type 2)
Bit depth : 10 bits
Bits/(Pixel*Frame) : 0.384
Time code of first frame : 00:00:00:00
Stream size : 65.2 GiB (94%)
Language : English
Default : No
Forced : No
Color range : Limited
Color primaries : BT.2020
Transfer characteristics : PQ
Matrix coefficients : BT.2020 non-constant
Mastering display color pri : Display P3
Mastering display luminance : min: 0.0001 cd/m2, max: 1000 cd/m2
Maximum Content Light Level : 841 cd/m2
Maximum Frame-Average Light : 462 cd/m2
Original source medium : Blu-ray

Audio #1
ID : 2
Format : AC-3
Format/Info : Audio Coding 3
Commercial name : Dolby Digital
Codec ID : A_AC3
Duration : 2 h 1 min
Bit rate mode : Constant
Bit rate : 384 kb/s
Channel(s) : 6 channels
Channel layout : L R C LFE Ls Rs
Sampling rate : 48.0 kHz
Frame rate : 31.250 FPS (1536 SPF)
Compression mode : Lossy
Stream size : 335 MiB (0%)
Title : MVO [Neoclassica] - cens.
Language : Russian
Service kind : Complete Main
Default : Yes
Forced : No

Audio #2
ID : 3
Format : AC-3
Format/Info : Audio Coding 3
Commercial name : Dolby Digital
Codec ID : A_AC3
Duration : 2 h 1 min
Bit rate mode : Constant
Bit rate : 384 kb/s
Channel(s) : 6 channels
Channel layout : L R C LFE Ls Rs
Sampling rate : 48.0 kHz
Frame rate : 31.250 FPS (1536 SPF)
Compression mode : Lossy
Stream size : 335 MiB (0%)
Title : MVO [Neoclassica] - uncens.
Language : Russian
Service kind : Complete Main
Default : No
Forced : No

Audio #3
ID : 4
Format : DTS XLL
Format/Info : Digital Theater Systems
Commercial name : DTS-HD Master Audio
Codec ID : A_DTS
Duration : 2 h 1 min
Bit rate mode : Variable
Bit rate : 4 227 kb/s
Channel(s) : 6 channels
Channel layout : C L R Ls Rs LFE
Sampling rate : 48.0 kHz
Frame rate : 93.750 FPS (512 SPF)
Bit depth : 24 bits
Compression mode : Lossless
Stream size : 3.60 GiB (5%)
Title : Original
Language : English
Default : No
Forced : No

Text #1
ID : 5
Format : UTF-8
Codec ID : S_TEXT/UTF8
Codec ID/Info : UTF-8 Plain Text
Duration : 1 h 54 min
Bit rate : 96 b/s
Frame rate : 0.219 FPS
Count of elements : 1507
Stream size : 81.6 KiB (0%)
Title : Full
Language : Russian
Default : No
Forced : No

Text #2
ID : 6
Format : UTF-8
Codec ID : S_TEXT/UTF8
Codec ID/Info : UTF-8 Plain Text
Duration : 1 h 54 min
Bit rate : 66 b/s
Frame rate : 0.245 FPS
Count of elements : 1680
Stream size : 55.8 KiB (0%)
Title : Full
Language : English
Default : No
Forced : No

Menu
00:00:00.000 : en:Глава 01
00:10:12.083 : en:Глава 02
00:20:47.125 : en:Глава 03
00:28:56.000 : en:Глава 04
00:37:55.500 : en:Глава 05
00:48:04.792 : en:Глава 06
00:57:40.000 : en:Глава 07
01:07:29.000 : en:Глава 08
01:21:36.708 : en:Глава 09
01:30:48.792 : en:Глава 10
01:40:42.083 : en:Глава 11
01:48:21.167 : en:Глава 12

Другие фильмы
У данной публикации пока нет комментариев.
Будь первым, оставь своё мнение в комментариях!
Информация
Посетители, находящиеся в группе Гости, не могут оставлять комментарии к данной публикации.
Самый популярный релиз недели
Донаты
Мы в соц. сетях / RSS

Лучшие релизы месяца
Лучшие SD недели
Лучшие 720p недели
Лучшие 1080p недели
Лучшие 4K недели
Вы недавно смотрели
Реклама
Последние комментарии
...

fataxdd

16 июля 2024 07:13

...

Rustik99

12 июля 2024 10:11

...

Rograr

6 июля 2024 19:56

...

fenix

2 июля 2024 07:45

...

Fidelrus

28 июня 2024 13:53

Реклама