+10

Белоснежка и семь гномов / Snow White and the Seven Dwarfs (1937) UHD BDRemux 2160p от селезень | 4K | HDR | D

Информация о фильме
Название: Белоснежка и семь гномов
Оригинальное название: Snow White and the Seven Dwarfs
Год выхода: 1937
Жанр: мультфильм, мюзикл, фэнтези, мелодрама, приключения, семейный
Режиссер: Уильям Коттрелл, Дэвид Хэнд, Уилфред Джексон
В ролях: Адриана Каселотти, Люсиль Ла Верн, Гарри Стокуэлл, Рой Этвелл, Пинто Колвиг, Отис Хэрлан, Скотти Мэттроу, Билли Гилберт, Морони Олсен, Стюарт Бьюкэнэн

О фильме: Принцесса Белоснежка в раннем детстве потеряла мать, а её отец-король женился вновь. Тщеславная и злобная Королева, завидуя красоте юной падчерицы, вынуждает девочку ходить в лохмотьях и делать чёрную работу, помыкает ею как служанкой. Узнав от волшебного зеркальца, что Белоснежка стала самой прекрасной девушкой на свете, завистница решила погубить прелестную падчерицу. Но бедная девушка не погибла в лесу, а наоборот, встретила там настоящих друзей - забавных семерых гномов: Профессора, Ворчуна, Весельчака, Скромника, Чихоню, Соню и Молчуна.

Страна: США
Студия: Walt Disney Productions
Продолжительность: 01:23:09
Перевод: Дублированный | Невафильм

Качество: BDRemux 2160p
Видео: 3840x2160 at 23.976 fps, MPEG-H HEVC HDR Video, 86500 kbps avg
Аудио #01: 48 kHz, AC3, 5.1, 384 Kbps | Дублированный | Невафильм | RUS |Белоснежка и семь гномов / Snow White and the Seven Dwarfs (1937) UHD BDRemux 2160p от селезень | 4K | HDR | D
Аудио #02: 48 kHz, DTS-HD MA, 7.1, 3733 Kbps | Оригинал | ENG |
Субтитры: Русские (Full), английские

Белоснежка и семь гномов / Snow White and the Seven Dwarfs (1937) UHD BDRemux 2160p от селезень | 4K | HDR | D

Авторизуйтесь для получения доступа к скачиванию

Нет аккаунта? Регистрация открыта и займёт меньше минуты

Вход Регистрация

General
Unique ID : 10597486466571858729624034059943527238 (0x7F9006C45FD54B8E12766FB91B1C346)
Complete name : H:\VideoH\Snow.White.and.the.Seven.Dwarfs.1937.BDREMUX.2160p.HDR.seleZen.mkv
Format : Matroska
Format version : Version 4
File size : 52.7 GiB
Duration : 1 h 23 min
Overall bit rate mode : Variable
Overall bit rate : 90.6 Mb/s
Frame rate : 23.976 FPS
Movie name : Snow White and the Seven Dwarfs 1937 from seleZen
Encoded date : 2023-11-19 12:43:05 UTC
Writing application : mkvmerge v79.0 ('Funeral Pyres') 64-bit
Writing library : libebml v1.4.4 + libmatroska v1.7.1

Video
ID : 1
Format : HEVC
Format/Info : High Efficiency Video Coding
Format profile : Main [email protected]@High
HDR format : SMPTE ST 2086, HDR10 compatible
Codec ID : V_MPEGH/ISO/HEVC
Duration : 1 h 23 min
Bit rate : 86.5 Mb/s
Width : 3 840 pixels
Height : 2 160 pixels
Display aspect ratio : 16:9
Frame rate mode : Constant
Frame rate : 23.976 (24000/1001) FPS
Color space : YUV
Chroma subsampling : 4:2:0 (Type 2)
Bit depth : 10 bits
Bits/(Pixel*Frame) : 0.435
Stream size : 50.3 GiB (95%)
Language : English
Default : Yes
Forced : No
Color range : Limited
Color primaries : BT.2020
Transfer characteristics : PQ
Matrix coefficients : BT.2020 non-constant
Mastering display color pri : BT.2020
Mastering display luminance : min: 0.0001 cd/m2, max: 1000 cd/m2

Audio #1
ID : 2
Format : AC-3
Format/Info : Audio Coding 3
Commercial name : Dolby Digital
Codec ID : A_AC3
Duration : 1 h 23 min
Bit rate mode : Constant
Bit rate : 384 kb/s
Channel(s) : 6 channels
Channel layout : L R C LFE Ls Rs
Sampling rate : 48.0 kHz
Frame rate : 31.250 FPS (1536 SPF)
Compression mode : Lossy
Stream size : 229 MiB (0%)
Title : Dub [Невафильм]
Language : Russian
Service kind : Complete Main
Default : Yes
Forced : No

Audio #2
ID : 3
Format : DTS XLL
Format/Info : Digital Theater Systems
Commercial name : DTS-HD Master Audio
Codec ID : A_DTS
Duration : 1 h 23 min
Bit rate mode : Variable
Bit rate : 3 733 kb/s
Channel(s) : 8 channels
Channel layout : C L R LFE Lb Rb Lss Rss
Sampling rate : 48.0 kHz
Frame rate : 93.750 FPS (512 SPF)
Bit depth : 24 bits
Compression mode : Lossless
Stream size : 2.17 GiB (4%)
Title : Original
Language : English
Default : No
Forced : No

Text #1
ID : 4
Format : UTF-8
Codec ID : S_TEXT/UTF8
Codec ID/Info : UTF-8 Plain Text
Duration : 1 h 22 min
Bit rate : 49 b/s
Frame rate : 0.102 FPS
Count of elements : 509
Stream size : 30.2 KiB (0%)
Language : Russian
Default : No
Forced : No

Text #2
ID : 5
Format : UTF-8
Codec ID : S_TEXT/UTF8
Codec ID/Info : UTF-8 Plain Text
Duration : 1 h 20 min
Bit rate : 41 b/s
Frame rate : 0.217 FPS
Count of elements : 1043
Stream size : 24.5 KiB (0%)
Language : English
Default : No
Forced : No

Menu
00:00:00.000 : Opening Credits
00:01:22.624 : Once Upon a Time...
00:02:11.131 : The Magic Mirror
00:03:34.047 : "I'm Wishing"
00:05:24.116 : The Prince ("One Song")
00:06:59.085 : The Queen's Evil Plan
00:09:09.716 : Flight Through the Forest
00:11:33.026 : "With a Smile and a Song"
00:14:55.269 : The Dwarfs' Cottage
00:17:36.639 : "Whistle While You Work"
00:21:23.782 : "Heigh-Ho"
00:24:08.029 : Snow White Explores Upstairs
00:25:28.110 : The Dwarfs Arrive Home
00:34:53.717 : Snow White Wakes Up
00:42:45.688 : "Bluddle-Uddle-Um-Dum"
00:47:48.323 : Deceived
00:49:14.118 : The Queen Prepares a Disguise
00:52:01.868 : "The Dwarfs' Yodel Song"
00:56:47.738 : "Some Day My Prince Will Come"
00:58:51.611 : Settling Down for the Night
01:02:37.920 : The Poison Apple
01:05:39.518 : The Next Morning
01:08:23.224 : The Old Peddler Woman
01:11:39.587 : The Animals Warn the Dwarfs
01:14:06.943 : The Apple
01:17:42.616 : A Bedside Vigil
01:20:26.780 : Love's First Kiss

Другие фильмы
У данной публикации пока нет комментариев.
Будь первым, оставь своё мнение в комментариях!
Информация
Посетители, находящиеся в группе Гости, не могут оставлять комментарии к данной публикации.
Самый популярный релиз недели
Донаты
Мы в соц. сетях / RSS

Лучшие релизы месяца
Лучшие SD недели
Лучшие 720p недели
Лучшие 1080p недели
Лучшие 4K недели
Вы недавно смотрели
Реклама
Последние комментарии
...

fataxdd

16 июля 2024 07:13

...

Rustik99

12 июля 2024 10:11

...

Rograr

6 июля 2024 19:56

...

fenix

2 июля 2024 07:45

...

Fidelrus

28 июня 2024 13:53

Реклама