+7

Живёшь только раз / Sólo se vive una vez / You Only Live Once (2017) WEB-DLRip-AVC от DoMiNo & селезень | P

Информация о фильме
Название: Живёшь только раз
Оригинальное название: Sólo se vive una vez / You Only Live Once
Год выхода: 2017
Жанр: боевик, триллер, комедия, криминал
Режиссер: Федерико Куэва
В ролях: Питер Ланзани, Жерар Депардье, Пабло Раго, Дарио Лопилато, Уго Сильва, Аранча Марти, Луис Брандони, Сантьяго Сегура, Мария Эухения Суарес Риверо, Карлос Аресес, Хосе Мария Монхе, Алехандро Фиоре, Уолтер Донато, Герман Джонс, Пабло Седрон

О фильме:
Решив однажды воспользоваться ситуацией и немного разбогатеть, мелкий мошенник Леонардо Андраде попадает в серьезную заварушку: он становится единственным свидетелем одной кровавой разборки, и банда головорезов открывает на него охоту. Прихватив с собой видео заказного убийства и сохранив улики, Лео пускается в бега, моля бога о помощи. И судьба посылает беглецу руку помощи, правда в лице еврейского раввина. В то время, как безжалостный убийца Дюджес со своими сообщниками по пятам преследуют свидетеля, Лео пытается найти спасение под личиной ортодоксального еврея-хасида. На какое-то время ему удается укрыться от своих врагов под кровом еврейской общины, но опытные убийцы неумолимо подбираются все ближе.

Выпущено: Аргентина, Испания / A Contracorriente Films, Benteveo Producciones, Bowfinger International Pictures
Продолжительность: 01:27:23
Перевод: Профессиональный (многоголосый, закадровый) | OKKO

Файл
Формат: Matroska
Качество: WEB-DLRip-AVC
Видео: 1024x428 at 25.000 fps, [email protected], ~1930 kbps
Аудио: AC3, 6 ch, ~384 kbps - | Русский | Живёшь только раз / Sólo se vive una vez / You Only Live Once (2017) WEB-DLRip-AVC от DoMiNo & селезень | P
Субтитры: Нет

Авторизуйтесь для получения доступа к скачиванию

Нет аккаунта? Регистрация открыта и займёт меньше минуты

Вход Регистрация

General
Unique ID : 67557238295741793457297076821399222082 (0x32D30D027FD68E5DF90EB62BD6A4B742)
Complete name : I:You.Only.Live.Once.2017.WEB-DLRip.x264.seleZen.mkv
Format : Matroska
Format version : Version 4
File size : 1.41 GiB
Duration : 1 h 27 min
Overall bit rate : 2 317 kb/s
Frame rate : 25.000 FPS
Movie name : You.Only.Live.Once.2017.WEB-DLRip.x264.seleZen
Encoded date : 2023-11-19 13:59:15 UTC
Writing application : mkvmerge v80.0 ('Roundabout') 64-bit
Writing library : libebml v1.4.4 + libmatroska v1.7.1
Cover : Yes
Attachments : cover.jpg / small_cover.jpg

Video
ID : 1
Format : AVC
Format/Info : Advanced Video Codec
Format profile : [email protected]
Format settings : CABAC / 10 Ref Frames
Format settings, CABAC : Yes
Format settings, Reference : 10 frames
Codec ID : V_MPEG4/ISO/AVC
Duration : 1 h 27 min
Bit rate : 1 930 kb/s
Width : 1 024 pixels
Height : 428 pixels
Display aspect ratio : 2.40:1
Frame rate mode : Constant
Frame rate : 25.000 FPS
Color space : YUV
Chroma subsampling : 4:2:0
Bit depth : 8 bits
Scan type : Progressive
Bits/(Pixel*Frame) : 0.176
Stream size : 1.18 GiB (83%)
Title : -=DoMiNo=-
Writing library : x264 core 164 r3164 _DoMiNo
Encoding settings : cabac=1 / ref=10 / deblock=1:0:0 / analyse=0x3:0x133 / me=umh / subme=10 / psy=1 / psy_rd=1.00:0.15 / mixed_ref=1 / me_range=32 / chroma_me=1 / trellis=2 / 8x8dct=1 / cqm=0 / deadzone=21,11 / fast_pskip=0 / chroma_qp_offset=-3 / threads=17 / lookahead_threads=3 / sliced_threads=0 / nr=0 / decimate=0 / interlaced=0 / bluray_compat=0 / constrained_intra=0 / bframes=12 / b_pyramid=2 / b_adapt=2 / b_bias=0 / direct=3 / weightb=1 / open_gop=0 / weightp=2 / keyint=250 / keyint_min=25 / scenecut=40 / intra_refresh=0 / rc_lookahead=60 / rc=crf / mbtree=0 / crf=18.8 / qcomp=0.60 / qpmin=0 / qpmax=69 / qpstep=4 / vbv_maxrate=50000 / vbv_bufsize=62500 / crf_max=0.0 / nal_hrd=none / filler=0 / ip_ratio=1.40 / pb_ratio=1.30 / aq=3:1.00
Language : English
Default : Yes
Forced : No
Color range : Limited
Matrix coefficients : BT.709

Audio
ID : 2
Format : AC-3
Format/Info : Audio Coding 3
Commercial name : Dolby Digital
Codec ID : A_AC3
Duration : 1 h 27 min
Bit rate mode : Constant
Bit rate : 384 kb/s
Channel(s) : 6 channels
Channel layout : L R C LFE Ls Rs
Sampling rate : 48.0 kHz
Frame rate : 31.250 FPS (1536 SPF)
Compression mode : Lossy
Stream size : 240 MiB (17%)
Title : MVO
Language : Russian
Service kind : Complete Main
Default : Yes
Forced : No

Menu
00:00:00.000 : en:Глава 01
00:05:50.000 : en:Глава 02
00:11:40.000 : en:Глава 03
00:17:30.000 : en:Глава 04
00:23:20.000 : en:Глава 05
00:29:10.000 : en:Глава 06
00:35:00.000 : en:Глава 07
00:40:50.000 : en:Глава 08
00:46:40.000 : en:Глава 09
00:52:30.000 : en:Глава 10
00:58:20.000 : en:Глава 11
01:04:10.000 : en:Глава 12
01:10:00.000 : en:Глава 13
01:15:50.000 : en:Глава 14
01:21:40.000 : en:Глава 15

Другие фильмы
У данной публикации пока нет комментариев.
Будь первым, оставь своё мнение в комментариях!
Информация
Посетители, находящиеся в группе Гости, не могут оставлять комментарии к данной публикации.
Самый популярный релиз недели
Донаты
Мы в соц. сетях / RSS

Лучшие релизы месяца
Лучшие SD недели
Лучшие 720p недели
Лучшие 1080p недели
Лучшие 4K недели
Вы недавно смотрели
Реклама
Последние комментарии
...

Al1ksandr

21 июня 2024 21:02

...

Bonzo

14 июня 2024 14:52

...

rmzshka

13 июня 2024 17:48

...

rmzshka

13 июня 2024 12:24

...

LisNick

13 июня 2024 08:45

Реклама