+8

В плену / The Girl in the Backseat (2023) WEB-DLRip-AVC от DoMiNo & селезень | D

Информация о фильме
Название: В плену
Оригинальное название: The Girl in the Backseat
Год выхода: 2023
Жанр: триллер, драма
Режиссер: Ник Лоран
В ролях: Кика Магалхэс, Кристофер Маррон, Хелен Дэй, Трэвис Квентин, Л. Джеффри Мур, Бретт Драйвер, Фрэнк Форбс, Керри Родс, Ана Лопес

О фильме:
София волею случая становится заложницей незнакомца по имени Райан, который похищает её и увозит в неизвестном направлении. Она связана на заднем сиденье его авто, и шансов на спасение почти нет. Оказавшись лицом к лицу со смертью, София борется за выживание.

Выпущено: США / Calico Pictures, Lanterna de Pedra Filmes, Mind the GAP Productions
Продолжительность: 01:24:25
Перевод: Дублированный | IVI
Субтитры: Русские (Full), Английские (Forced -хардсаб)

Файл
Формат: Matroska
Качество: WEB-DLRip-AVC
Видео: 1024x426 at 24.000 fps, [email protected], ~1498 kbps
Аудио: AC3, 6 ch, ~384 kbps - | Русский | В плену / The Girl in the Backseat (2023) WEB-DLRip-AVC от DoMiNo & селезень | D
Формат субтитров: softsub (SRT)

Авторизуйтесь для получения доступа к скачиванию

Нет аккаунта? Регистрация открыта и займёт меньше минуты

Вход Регистрация

General
Unique ID: 140014520834783516180658602385432595247 (0×6955D0DA65A2E27C2DDE58E0FBBF4B2F)
Complete name: I: The.Girl.in.the.Backseat.2023.WEB-DLRip.x264.seleZen.mkv
Format: Matroska
Format version: Version 4
File size: 1.34 GiB
Duration: 1 h 24 min
Overall bit rate: 2 269 kb/s
Frame rate: 24.000 FPS
Movie name: The.Girl.in.the.Backseat.2023.WEB-DLRip.x264.seleZen
Encoded date: 20.11.2023 08:22:09 UTC
Writing application: mkvmerge v80.0 ('Roundabout') 64-bit
Writing library: libebml v1.4.4 + libmatroska v1.7.1
Cover: Yes
Attachments: cover.jpg / small_cover.jpg

Video
ID: 1
Format: AVC
Format/Info: Advanced Video Codec
Format profile: [email protected]
Format settings: CABAC / 10 Ref Frames
Format settings, CABAC: Yes
Format settings, Reference: 10 frames
Codec ID: V_MPEG4/ISO/AVC
Duration: 1 h 24 min
Bit rate: 1 498 kb/s
Width: 1 024 pixels
Height: 426 pixels
Display aspect ratio: 2.40:1
Frame rate mode: Constant
Frame rate: 24.000 FPS
Color space: YUV
Chroma subsampling: 4:2:0
Bit depth: 8 bits
Scan type: Progressive
Bits/(Pixel*Frame): 0.143
Stream size: 905 MiB (66%)
Title: -=DoMiNo=-
Writing library: x264 core 164 r3164 _DoMiNo
Encoding settings: cabac=1 / ref=10 / deblock=1:-1:-1 / analyse=0×3:0×133 / me=umh / subme=10 / psy=1 / psy_rd=1.00:0.00 / mixed_ref=1 / me_range=32 / chroma_me=1 / trellis=2 / 8×8dct=1 / cqm=0 / deadzone=21,11 / fast_pskip=0 / chroma_qp_offset=-2 / threads=17 / lookahead_threads=3 / sliced_threads=0 / nr=0 / decimate=0 / interlaced=0 / bluray_compat=0 / constrained_intra=0 / bframes=10 / b_pyramid=2 / b_adapt=2 / b_bias=0 / direct=3 / weightb=1 / open_gop=0 / weightp=2 / keyint=250 / keyint_min=24 / scenecut=40 / intra_refresh=0 / rc_lookahead=60 / rc=crf / mbtree=0 / crf=18.0 / qcomp=0.60 / qpmin=0 / qpmax=69 / qpstep=4 / vbv_maxrate=50000 / vbv_bufsize=62500 / crf_max=0.0 / nal_hrd=none / filler=0 / ip_ratio=1.35 / pb_ratio=1.30 / aq=3:0.90
Language: English
Default: Yes
Forced: No

Audio #1
ID: 2
Format: AC-3
Format/Info: Audio Coding 3
Commercial name: Dolby Digital
Codec ID: A_AC3
Duration: 1 h 24 min
Bit rate mode: Constant
Bit rate: 384 kb/s
Channel (s): 6 channels
Channel layout: L R C LFE Ls Rs
Sampling rate: 48.0 kHz
Frame rate: 31.250 FPS (1536 SPF)
Compression mode: Lossy
Stream size: 232 MiB (17%)
Title: DUB
Language: Russian
Service kind: Complete Main
Default: Yes
Forced: No

Audio #2
ID: 3
Format: AC-3
Format/Info: Audio Coding 3
Commercial name: Dolby Digital
Codec ID: A_AC3
Duration: 1 h 24 min
Bit rate mode: Constant
Bit rate: 384 kb/s
Channel (s): 6 channels
Channel layout: L R C LFE Ls Rs
Sampling rate: 48.0 kHz
Frame rate: 31.250 FPS (1536 SPF)
Compression mode: Lossy
Stream size: 232 MiB (17%)
Title: Original
Language: English
Service kind: Complete Main
Default: No
Forced: No

Text
ID: 4
Format: UTF-8
Codec ID: S_TEXT/UTF8
Codec ID/Info: UTF-8 Plain Text
Duration: 1 h 20 min
Bit rate: 51 b/s
Frame rate: 0.167 FPS
Count of elements: 805
Stream size: 30.2 KiB (0%)
Title: Full
Language: Russian
Default: No
Forced: No

Menu
00:00:00.000: en: Глава 01
00:05:50.000: en: Глава 02
00:11:40.000: en: Глава 03
00:17:30.000: en: Глава 04
00:23:20.000: en: Глава 05
00:29:10.000: en: Глава 06
00:35:00.000: en: Глава 07
00:40:50.000: en: Глава 08
00:46:40.000: en: Глава 09
00:52:30.000: en: Глава 10
00:58:20.000: en: Глава 11
01:04:10.000: en: Глава 12
01:10:00.000: en: Глава 13
01:15:50.000: en: Глава 14
01:21:40.000: en: Глава 15

Другие фильмы
У данной публикации пока нет комментариев.
Будь первым, оставь своё мнение в комментариях!
Информация
Посетители, находящиеся в группе Гости, не могут оставлять комментарии к данной публикации.
Самый популярный релиз недели
Донаты
Мы в соц. сетях / RSS

Лучшие релизы месяца
Лучшие SD недели
Лучшие 720p недели
Лучшие 1080p недели
Лучшие 4K недели
Вы недавно смотрели
Реклама
Последние комментарии
...

Al1ksandr

21 июня 2024 21:02

...

Bonzo

14 июня 2024 14:52

...

rmzshka

13 июня 2024 17:48

...

rmzshka

13 июня 2024 12:24

...

LisNick

13 июня 2024 08:45

Реклама