+12

Морг / Morgue (2019) BDRip 720p от DoMiNo & селезень | D | iTunes

Информация о фильме
Название: Морг
Оригинальное название: Morgue
Год выхода: 2019
Жанр: Ужасы, триллер
Режиссер: Уго Кардосо
В ролях: Пабло Мартинес, Уилли Виллальба, Мария дель Мар Фернандес, Абель Мартинес, Альдо Фон Кноблох, Франсиско Айала, Рауль Ротела

О фильме:
Провести ночь в морге — то еще развлечение не для слабонервных и новенькому охраннику в этом плане «повезло». На первом же дежурстве он замечает очень странные вещи и сталкивается с потусторонней сущностью, способной прятаться в тени и настроенной явно враждебно.

Страна: Парагвай
Студия: HJ Producciones
Продолжительность: 01:20:50
Перевод: Дублированный | SoulPro | iTunes
Субтитры: Английские (Full)

Файл
Формат: Matroska
Качество: BDRip 720p
Видео: 1280x536 at 24.000 fps, [email protected], ~5961 kbps
Аудио 1: AC3, 6 ch, ~384 kbps - | Русский | Морг / Morgue (2019) BDRip 720p от DoMiNo & селезень | D | iTunes
Аудио 2: AC3, 6 ch, ~448 kbps - | Испанский |
Формат субтитров: softsub (SRT)

Авторизуйтесь для получения доступа к скачиванию

Нет аккаунта? Регистрация открыта и займёт меньше минуты

Вход Регистрация

General
Unique ID: 116358090175140710847148976914209110173 (0×5789C0C5868D530EF04A78123AC6F89D)
Complete name: R: Morgue.2019.DUB.BDRip.720p.x264.seleZen.mkv
Format: Matroska
Format version: Version 4
File size: 3.84 GiB
Duration: 1 h 20 min
Overall bit rate: 6 796 kb/s
Frame rate: 24.000 FPS
Movie name: Morgue.2019.DUB.BDRip.720p.x264.seleZen
Encoded date: 21.11.2023 17:34:52 UTC
Writing application: mkvmerge v80.0 ('Roundabout') 64-bit
Writing library: libebml v1.4.4 + libmatroska v1.7.1
Cover: Yes
Attachments: cover.jpg / small_cover.jpg

Video
ID: 1
Format: AVC
Format/Info: Advanced Video Codec
Format profile: [email protected]
Format settings: CABAC / 12 Ref Frames
Format settings, CABAC: Yes
Format settings, Reference: 12 frames
Codec ID: V_MPEG4/ISO/AVC
Duration: 1 h 20 min
Bit rate: 5 961 kb/s
Width: 1 280 pixels
Height: 536 pixels
Display aspect ratio: 2.40:1
Frame rate mode: Constant
Frame rate: 24.000 FPS
Color space: YUV
Chroma subsampling: 4:2:0
Bit depth: 8 bits
Scan type: Progressive
Bits/(Pixel*Frame): 0.362
Stream size: 3.37 GiB (88%)
Title: -=DoMiNo=-
Writing library: x264 core 164 r3164 _DoMiNo
Encoding settings: cabac=1 / ref=12 / deblock=1:-2:-2 / analyse=0×3:0×133 / me=umh / subme=10 / psy=1 / psy_rd=1.01:0.02 / mixed_ref=1 / me_range=32 / chroma_me=1 / trellis=2 / 8×8dct=1 / cqm=0 / deadzone=21,11 / fast_pskip=0 / chroma_qp_offset=-3 / threads=17 / lookahead_threads=4 / sliced_threads=0 / nr=0 / decimate=0 / interlaced=0 / bluray_compat=0 / constrained_intra=0 / bframes=10 / b_pyramid=2 / b_adapt=2 / b_bias=0 / direct=3 / weightb=1 / open_gop=0 / weightp=2 / keyint=250 / keyint_min=24 / scenecut=40 / intra_refresh=0 / rc_lookahead=60 / rc=crf / mbtree=0 / crf=18.8 / qcomp=0.60 / qpmin=0 / qpmax=69 / qpstep=4 / vbv_maxrate=50000 / vbv_bufsize=62500 / crf_max=0.0 / nal_hrd=none / filler=0 / ip_ratio=1.40 / pb_ratio=1.25 / aq=3:0.80
Language: English
Default: Yes
Forced: No

Audio #1
ID: 2
Format: AC-3
Format/Info: Audio Coding 3
Commercial name: Dolby Digital
Codec ID: A_AC3
Duration: 1 h 20 min
Bit rate mode: Constant
Bit rate: 384 kb/s
Channel (s): 6 channels
Channel layout: L R C LFE Ls Rs
Sampling rate: 48.0 kHz
Frame rate: 31.250 FPS (1536 SPF)
Compression mode: Lossy
Stream size: 222 MiB (6%)
Title: Дублированный | SoulPro | iTunes
Language: Russian
Service kind: Complete Main
Default: Yes
Forced: No

Audio #2
ID: 3
Format: AC-3
Format/Info: Audio Coding 3
Commercial name: Dolby Digital
Codec ID: A_AC3
Duration: 1 h 20 min
Bit rate mode: Constant
Bit rate: 448 kb/s
Channel (s): 6 channels
Channel layout: L R C LFE Ls Rs
Sampling rate: 48.0 kHz
Frame rate: 31.250 FPS (1536 SPF)
Compression mode: Lossy
Stream size: 259 MiB (7%)
Title: Original
Language: Spanish
Service kind: Complete Main
Default: No
Forced: No

Text
ID: 4
Format: UTF-8
Codec ID: S_TEXT/UTF8
Codec ID/Info: UTF-8 Plain Text
Duration: 1 h 19 min
Bit rate: 12 b/s
Frame rate: 0.070 FPS
Count of elements: 335
Stream size: 7.52 KiB (0%)
Title: Full
Language: English
Default: No
Forced: No

Menu
00:00:00.000: Chapter 01
00:08:34.875: Chapter 02
00:13:40.792: Chapter 03
00:21:36.125: Chapter 04
00:30:57.083: Chapter 05
00:42:30.500: Chapter 06
00:56:14.875: Chapter 07
01:08:39.958: Chapter 08
01:16:42.500: Chapter 09

Другие фильмы
У данной публикации пока нет комментариев.
Будь первым, оставь своё мнение в комментариях!
Информация
Посетители, находящиеся в группе Гости, не могут оставлять комментарии к данной публикации.
Самый популярный релиз недели
Донаты
Мы в соц. сетях / RSS

Лучшие релизы месяца
Лучшие SD недели
Лучшие 720p недели
Лучшие 1080p недели
Лучшие 4K недели
Вы недавно смотрели
Реклама
Последние комментарии
...

zik77

2 марта 2024 07:26

...

korelov

23 февраля 2024 14:35

...

Desol

21 февраля 2024 00:28

...

diabloq

20 февраля 2024 14:17

...

slightlymad

17 февраля 2024 21:01

Реклама