+11

Искусство по понятиям / The Kill Room (2023) BDRip 720p от DoMiNo & селезень | D

Информация о фильме
Название: Искусство по понятиям
Оригинальное название: The Kill Room
Год выхода: 2023
Жанр: триллер, комедия
Режиссер: Николь Паон / Nicol Paone
В ролях: Ума Турман, Сэмюэл Л. Джексон, Джо Манганьелло, Эми Кым, Деби Мейзар, Николай Цанков, Александр Соковиков, Дженнифер Ким, Майя Хоук, Майк Дойл

О фильме:
Неудачливая хозяйка арт-галереи Патрис, киллер Реджи и его босс Гордон ввязываются в опасную авантюру по отмыванию денег. Дело принимает неожиданный оборот, когда Реджи становится восходящей звездой авангардной живописи. Так вдохновенное преступление превращается в настоящее искусство.

Страна: США
Студия: BKStudios, BondIt, Bradley Pilz Productions, Buffalo 8 Productions, Complex Corp, Cranium Entertainment, Go-T?bun no Hanayome Production Committee, Head Gear Films, Idiot Savant Pictures, Metrol Technology, Slated, Such Content, Sucheta DreamWorks Productions [IND], Untitled Entertainment, Yale Productions
Продолжительность: 01:37:06
Перевод: Дублированный | Кириллица
Субтитры: Английские

Файл
Формат: Matroska
Качество: BDRip 720p [исх.The.Kill.Room.2023.COMPLETE.BLURAY-iNTEGRUM]
Видео: 1280x536 at 23.976 fps, [email protected], ~3053 kbps
Аудио 1: AC3, 6 ch, ~384 kbps - | Русский | Искусство по понятиям / The Kill Room (2023) BDRip 720p от DoMiNo & селезень | D
Аудио 2: AC3, 6 ch, ~640 kbps - | Английский |
Формат субтитров: softsub (SRT)

Авторизуйтесь для получения доступа к скачиванию

Нет аккаунта? Регистрация открыта и займёт меньше минуты

Вход Регистрация

x264 [info]: frame I:1178 Avg QP:13.04 size:101191
x264 [info]: frame P:29390 Avg QP:15.20 size: 31039
x264 [info]: frame B:109112 Avg QP:16.82 size: 10922

General
Unique ID : 260970277236401421738667400613631627250 (0xC4550C122F0BFB7AC4D7B49C6ECC0FF2)
Complete name : R:The.Kill.Room.2023.DUB.BDRip.720p.x264.seleZen.mkv
Format : Matroska
Format version : Version 4
File size : 2.77 GiB
Duration : 1 h 37 min
Overall bit rate : 4 079 kb/s
Frame rate : 23.976 FPS
Movie name : The.Kill.Room.2023.DUB.BDRip.720p.x264.seleZen
Encoded date : 2023-11-26 11:30:42 UTC
Writing application : mkvmerge v80.0 ('Roundabout') 64-bit
Writing library : libebml v1.4.4 + libmatroska v1.7.1
Cover : Yes
Attachments : cover.jpg / small_cover.jpg

Video
ID : 1
Format : AVC
Format/Info : Advanced Video Codec
Format profile : [email protected]
Format settings : CABAC / 12 Ref Frames
Format settings, CABAC : Yes
Format settings, Reference : 12 frames
Codec ID : V_MPEG4/ISO/AVC
Duration : 1 h 37 min
Bit rate : 3 053 kb/s
Width : 1 280 pixels
Height : 536 pixels
Display aspect ratio : 2.40:1
Frame rate mode : Constant
Frame rate : 23.976 (24000/1001) FPS
Color space : YUV
Chroma subsampling : 4:2:0
Bit depth : 8 bits
Scan type : Progressive
Bits/(Pixel*Frame) : 0.186
Stream size : 2.07 GiB (75%)
Title : -=DoMiNo=-
Writing library : x264 core 164 r3164 _DoMiNo
Encoding settings : cabac=1 / ref=12 / deblock=1:-2:-2 / analyse=0x3:0x133 / me=umh / subme=10 / psy=1 / psy_rd=1.00:0.00 / mixed_ref=1 / me_range=32 / chroma_me=1 / trellis=2 / 8x8dct=1 / cqm=0 / deadzone=21,11 / fast_pskip=0 / chroma_qp_offset=-2 / threads=17 / lookahead_threads=4 / sliced_threads=0 / nr=0 / decimate=1 / interlaced=0 / bluray_compat=0 / constrained_intra=0 / bframes=14 / b_pyramid=2 / b_adapt=2 / b_bias=0 / direct=3 / weightb=1 / open_gop=0 / weightp=2 / keyint=250 / keyint_min=23 / scenecut=40 / intra_refresh=0 / rc_lookahead=60 / rc=crf / mbtree=0 / crf=16.3 / qcomp=0.60 / qpmin=0 / qpmax=69 / qpstep=4 / vbv_maxrate=50000 / vbv_bufsize=62500 / crf_max=0.0 / nal_hrd=none / filler=0 / ip_ratio=1.40 / pb_ratio=1.20 / aq=3:0.80
Language : English
Default : Yes
Forced : No

Audio #1
ID : 2
Format : AC-3
Format/Info : Audio Coding 3
Commercial name : Dolby Digital
Codec ID : A_AC3
Duration : 1 h 37 min
Bit rate mode : Constant
Bit rate : 384 kb/s
Channel(s) : 6 channels
Channel layout : L R C LFE Ls Rs
Sampling rate : 48.0 kHz
Frame rate : 31.250 FPS (1536 SPF)
Compression mode : Lossy
Stream size : 267 MiB (9%)
Title : Дублированный | Кириллица
Language : Russian
Service kind : Complete Main
Default : Yes
Forced : No

Audio #2
ID : 3
Format : AC-3
Format/Info : Audio Coding 3
Commercial name : Dolby Digital
Codec ID : A_AC3
Duration : 1 h 37 min
Bit rate mode : Constant
Bit rate : 640 kb/s
Channel(s) : 6 channels
Channel layout : L R C LFE Ls Rs
Sampling rate : 48.0 kHz
Frame rate : 31.250 FPS (1536 SPF)
Compression mode : Lossy
Stream size : 444 MiB (16%)
Title : Original
Language : English
Service kind : Complete Main
Default : No
Forced : No

Text #1
ID : 4
Format : UTF-8
Codec ID : S_TEXT/UTF8
Codec ID/Info : UTF-8 Plain Text
Duration : 1 h 30 min
Bit rate : 77 b/s
Frame rate : 0.308 FPS
Count of elements : 1670
Stream size : 51.2 KiB (0%)
Title : Full
Language : English
Default : No
Forced : No

Text #2
ID : 5
Format : UTF-8
Codec ID : S_TEXT/UTF8
Codec ID/Info : UTF-8 Plain Text
Duration : 1 h 35 min
Bit rate : 86 b/s
Frame rate : 0.344 FPS
Count of elements : 1979
Stream size : 60.6 KiB (0%)
Title : SDH
Language : English
Default : No
Forced : No

Menu
00:00:00.000 : Глава 1
00:05:51.976 : Глава 2
00:17:04.773 : Глава 3
00:26:22.080 : Глава 4
00:36:44.827 : Глава 5
00:46:01.175 : Глава 6
00:55:55.560 : Глава 7
01:03:51.285 : Глава 8
01:10:14.793 : Глава 9
01:19:17.419 : Глава 10
01:25:35.630 : Глава 11
01:31:24.687 : Глава 12
01:37:04.819 : Глава 13

Другие фильмы
У данной публикации пока нет комментариев.
Будь первым, оставь своё мнение в комментариях!
Информация
Посетители, находящиеся в группе Гости, не могут оставлять комментарии к данной публикации.
Самый популярный релиз недели
Донаты
Мы в соц. сетях / RSS

Лучшие релизы месяца
Лучшие SD недели
Лучшие 720p недели
Лучшие 1080p недели
Лучшие 4K недели
Вы недавно смотрели
Реклама
Последние комментарии
...

zik77

2 марта 2024 07:26

...

korelov

23 февраля 2024 14:35

...

Desol

21 февраля 2024 00:28

...

diabloq

20 февраля 2024 14:17

...

slightlymad

17 февраля 2024 21:01

Реклама