+4

Санта Клаус / Santa Claus: The Movie (1985) UHD BDRemux 2160p от селезень | 4K | HDR | Dolby Vision Profile 8 | P2

Информация о фильме
Название: Санта Клаус
Оригинальное название: Santa Claus: The Movie
Год выхода: 1985
Жанр: фэнтези, приключения, семейный
Режиссер: Жанно Шварц
В ролях: Дадли Мур, Джон Литгоу, Дэвид Хаддлстон, Бёрджесс Мередит, Джуди Корнуэлл, Джефри Крамер, Кристиан Фицпатрик, Кэрри Кеи Хейм, Джон Баррард, Энтони О'Доннелл

О фильме: Однажды, давным-давно, в зимнюю стужу ледоруб Клаус отправился в лес на оленях. И не один, а со своей женой Аней. В лесу на горе поднялась буря, и Клаус с Аней замерзли. Больше на земле никто никогда их не видел.

Потому что добрые эльфы забрали бедняжек в волшебную страну, оживили их и превратили простого лапландского лесоруба в волшебного Сайта Клауса. Долгие годы возил добрый Санта игрушки детям под Рождество. И вот однажды случилось непоправимое: мир изменился и игрушки эльфов устарели. И тогда друг Санты Панч придумал такое... Ни в сказке сказать, ни пером описать.


Страна: Великобритания, США
Студия: Calash Corporation N.V., GGG, Major Studio Partners, Santa Claus Ltd.
Продолжительность: 01:48:41
Перевод: Профессиональный двухголосый | ОРТ

Качество: BDRemux 2160p
Видео: 3840x2160 at 24.000 fps, MPEG-H HEVC HDR Video, 89500 kbps
Аудио #01: 48 kHz, AC3, 2.0, 192 Kbps | Профессиональный двухголосый | ОРТ | RUS |Санта Клаус / Santa Claus: The Movie (1985) UHD BDRemux 2160p от селезень | 4K | HDR | Dolby Vision Profile 8 | P2
Аудио #02: 48 kHz, PCM, 2.0, 2304 Kbps | Оригинал | ENG |
Субтитры: Английские

Санта Клаус / Santa Claus: The Movie (1985) UHD BDRemux 2160p от селезень | 4K | HDR | Dolby Vision Profile 8 | P2

Авторизуйтесь для получения доступа к скачиванию

Нет аккаунта? Регистрация открыта и займёт меньше минуты

Вход Регистрация

General
Unique ID : 2708753610360658403023233873048672445 (0x209AFDD33915ACB9E5B6195CF7E98BD)
Complete name : H:\VideoH\Santa.Claus.The.Movie.1985.BDREMUX.2160p.HDR.DVP8.seleZen.mkv
Format : Matroska
Format version : Version 4
File size : 69.9 GiB
Duration : 1 h 48 min
Overall bit rate : 92.0 Mb/s
Frame rate : 24.000 FPS
Movie name : Santa Claus The Movie 1985 from seleZen
Encoded date : 2023-12-02 16:20:53 UTC
Writing application : mkvmerge v80.0 ('Roundabout') 64-bit
Writing library : libebml v1.4.4 + libmatroska v1.7.1
Cover : Yes
Attachments : cover.jpg

Video
ID : 1
ID in the original source m : 4117 (0x1015)
Format : HEVC
Format/Info : High Efficiency Video Coding
Format profile : Main [email protected]@High
HDR format : Dolby Vision, Version 1.0, dvhe.08.06, BL+RPU, Blu-ray compatible / SMPTE ST 2086, HDR10 compatible
Codec ID : V_MPEGH/ISO/HEVC
Duration : 1 h 48 min
Bit rate : 89.5 Mb/s
Width : 3 840 pixels
Height : 2 160 pixels
Display aspect ratio : 16:9
Frame rate mode : Constant
Frame rate : 24.000 FPS
Color space : YUV
Chroma subsampling : 4:2:0 (Type 2)
Bit depth : 10 bits
Bits/(Pixel*Frame) : 0.450
Stream size : 68.0 GiB (97%)
Language : English
Default : No
Forced : No
Color range : Limited
Color primaries : BT.2020
Transfer characteristics : PQ
Matrix coefficients : BT.2020 non-constant
Mastering display color pri : BT.2020
Mastering display luminance : min: 0.0001 cd/m2, max: 1000 cd/m2
Maximum Content Light Level : 1000 cd/m2
Maximum Frame-Average Light : 534 cd/m2
Original source medium : Blu-ray

Audio #1
ID : 2
Format : AC-3
Format/Info : Audio Coding 3
Commercial name : Dolby Digital
Codec ID : A_AC3
Duration : 1 h 48 min
Bit rate mode : Constant
Bit rate : 192 kb/s
Channel(s) : 2 channels
Channel layout : L R
Sampling rate : 48.0 kHz
Frame rate : 31.250 FPS (1536 SPF)
Compression mode : Lossy
Stream size : 149 MiB (0%)
Title : DVO [OPT]
Language : Russian
Service kind : Complete Main
Default : Yes
Forced : No

Audio #2
ID : 3
ID in the original source m : 4352 (0x1100)
Format : PCM
Format settings : Little / Signed
Codec ID : A_PCM/INT/LIT
Duration : 1 h 48 min
Bit rate mode : Constant
Bit rate : 2 304 kb/s
Channel(s) : 2 channels
Sampling rate : 48.0 kHz
Frame rate : 200.000 FPS (240 SPF)
Bit depth : 24 bits
Stream size : 1.75 GiB (3%)
Title : Original
Language : English
Default : No
Forced : No
Original source medium : Blu-ray

Text
ID : 4
Format : UTF-8
Codec ID : S_TEXT/UTF8
Codec ID/Info : UTF-8 Plain Text
Duration : 1 h 47 min
Bit rate : 53 b/s
Frame rate : 0.178 FPS
Count of elements : 1148
Stream size : 42.1 KiB (0%)
Language : English
Default : No
Forced : No

Menu
00:00:00.000 : en:Глава 01
00:09:18.708 : en:Глава 02
00:17:24.916 : en:Глава 03
00:26:47.625 : en:Глава 04
00:38:16.458 : en:Глава 05
00:48:34.000 : en:Глава 06
00:58:26.041 : en:Глава 07
01:04:17.041 : en:Глава 08
01:14:35.416 : en:Глава 09
01:24:40.041 : en:Глава 10
01:33:17.375 : en:Глава 11
01:39:48.000 : en:Глава 12

Другие фильмы
У данной публикации пока нет комментариев.
Будь первым, оставь своё мнение в комментариях!
Информация
Посетители, находящиеся в группе Гости, не могут оставлять комментарии к данной публикации.
Самый популярный релиз недели
Донаты
Мы в соц. сетях / RSS

Лучшие релизы месяца
Лучшие SD недели
Лучшие 720p недели
Лучшие 1080p недели
Лучшие 4K недели
Вы недавно смотрели
Реклама
Последние комментарии
...

zik77

2 марта 2024 07:26

...

korelov

23 февраля 2024 14:35

...

Desol

21 февраля 2024 00:28

...

diabloq

20 февраля 2024 14:17

...

slightlymad

17 февраля 2024 21:01

Реклама