+9

Красные комнаты / Les chambres rouges (2023) WEB-DLRip 720p от DoMiNo & селезень | P

Информация о фильме
Название: Красные комнаты
Оригинальное название: Les chambres rouges
Год выхода: 2023
Жанр: триллер
Режиссер: Паскаль Планте
В ролях: Juliette Gariépy, Laurie Babin, Elisabeth Locas, Максвелл МакКейб-Локос, Natalie Tannous, Пьер Шаньон, Ги Товетт, Шарлотта Обен, Себастьен Бюлак, Фредерик Де Гранпре

О фильме:
В суде идет рассмотрение громкого дела серийного убийц Людовика Шевалье. Молодая женщина Кэлли-Энн ночует у здания суда, чтобы успеть занять место в зале суда и не пропустить заседание. Она болезненно одержима личностью убийцы и хочет разгадать тайну пропавшего видео, на котором запечатлено убийство 13-летней девочки, похожей на героиню как две капли воды.

Страна: Канада
Продолжительность: 01:58:24
Перевод: Профессиональный (многоголосый, закадровый) | TVShows
Субтитры: Русские (forced), английские

Файл
Формат: Matroska
Качество: WEB-DLRip 720p
Видео: 1078×720 at 23.976 fps, [email protected], ~2365 kbps
Аудио: AC3, 6 ch, ~384 kbps — | Русский | Красные комнаты / Les chambres rouges (2023) WEB-DLRip 720p от DoMiNo & селезень | P
Формат субтитров: softsub (SRT)

Авторизуйтесь для получения доступа к скачиванию

Нет аккаунта? Регистрация открыта и займёт меньше минуты

Вход Регистрация

x264 [info]: frame I: 835 Avg QP: 15.82 size: 65110
x264 [info]: frame P: 36387 Avg QP: 16.57 size: 25414
x264 [info]: frame B: 133113 Avg QP: 18.49 size: 8424

General
Unique ID: 80849098926903799672769822373549869941 (0×3CD2F855DA3C9E12BD4C54E08E768B75)
Complete name: O: Les.chambres.rouges.2023.MVO.WEB-DLRip.720p.x264.seleZen.mkv
Format: Matroska
Format version: Version 4
File size: 2.28 GiB
Duration: 1 h 58 min
Overall bit rate: 2 751 kb/s
Frame rate: 23.976 FPS
Movie name: Les.chambres.rouges.2023.MVO.WEB-DLRip.720p.x264.seleZen
Encoded date: 03.12.2023 13:24:49 UTC
Writing application: mkvmerge v81.0 ('Milliontown') 64-bit
Writing library: libebml v1.4.4 + libmatroska v1.7.1
Cover: Yes
Attachments: cover.jpg / small_cover.jpg

Video
ID: 1
Format: AVC
Format/Info: Advanced Video Codec
Format profile: [email protected]
Format settings: CABAC / 5 Ref Frames
Format settings, CABAC: Yes
Format settings, Reference: 5 frames
Codec ID: V_MPEG4/ISO/AVC
Duration: 1 h 58 min
Bit rate: 2 365 kb/s
Width: 1 078 pixels
Height: 720 pixels
Display aspect ratio: 3:2
Frame rate mode: Constant
Frame rate: 23.976 (24000/1001) FPS
Color space: YUV
Chroma subsampling: 4:2:0
Bit depth: 8 bits
Scan type: Progressive
Bits/(Pixel*Frame): 0.127
Stream size: 1.96 GiB (86%)
Title: -=DoMiNo=-
Writing library: x264 core 164 r3172 c1c9931
Encoding settings: cabac=1 / ref=5 / deblock=1:-1:-1 / analyse=0×3:0×133 / me=umh / subme=10 / psy=1 / psy_rd=1.05:0.05 / mixed_ref=1 / me_range=32 / chroma_me=1 / trellis=2 / 8×8dct=1 / cqm=0 / deadzone=21,11 / fast_pskip=0 / chroma_qp_offset=-3 / threads=22 / lookahead_threads=5 / sliced_threads=0 / nr=0 / decimate=1 / interlaced=0 / bluray_compat=0 / constrained_intra=0 / bframes=12 / b_pyramid=2 / b_adapt=2 / b_bias=0 / direct=3 / weightb=1 / open_gop=0 / weightp=2 / keyint=250 / keyint_min=23 / scenecut=40 / intra_refresh=0 / rc_lookahead=60 / rc=crf / mbtree=0 / crf=20.3 / qcomp=0.60 / qpmin=0 / qpmax=69 / qpstep=4 / vbv_maxrate=50000 / vbv_bufsize=62500 / crf_max=0.0 / nal_hrd=none / filler=0 / ip_ratio=1.35 / pb_ratio=1.30 / aq=3:1.10
Language: English
Default: Yes
Forced: No

Audio
ID: 2
Format: AC-3
Format/Info: Audio Coding 3
Commercial name: Dolby Digital
Codec ID: A_AC3
Duration: 1 h 58 min
Bit rate mode: Constant
Bit rate: 384 kb/s
Channel (s): 6 channels
Channel layout: L R C LFE Ls Rs
Sampling rate: 48.0 kHz
Frame rate: 31.250 FPS (1536 SPF)
Compression mode: Lossy
Stream size: 325 MiB (14%)
Title: MVO_TVShows
Language: Russian
Service kind: Complete Main
Default: Yes
Forced: No

Text #1
ID: 3
Format: UTF-8
Codec ID: S_TEXT/UTF8
Codec ID/Info: UTF-8 Plain Text
Duration: 1 h 18 min
Bit rate: 7 b/s
Frame rate: 0.015 FPS
Count of elements: 71
Stream size: 4.42 KiB (0%)
Title: Forced
Language: Russian
Default: No
Forced: No

Text #2
ID: 4
Format: UTF-8
Codec ID: S_TEXT/UTF8
Codec ID/Info: UTF-8 Plain Text
Duration: 1 h 49 min
Bit rate: 46 b/s
Frame rate: 0.140 FPS
Count of elements: 922
Stream size: 37.4 KiB (0%)
Title: Full
Language: English
Default: No
Forced: No

Menu
00:00:00.000: en: Глава 01
00:05:50.000: en: Глава 02
00:11:40.000: en: Глава 03
00:17:30.000: en: Глава 04
00:23:20.000: en: Глава 05
00:29:10.000: en: Глава 06
00:35:00.000: en: Глава 07
00:40:50.000: en: Глава 08
00:46:40.000: en: Глава 09
00:52:30.000: en: Глава 10
00:58:20.000: en: Глава 11
01:04:10.000: en: Глава 12
01:10:00.000: en: Глава 13
01:15:50.000: en: Глава 14
01:21:40.000: en: Глава 15
01:27:30.000: en: Глава 16
01:33:20.000: en: Глава 17
01:39:10.000: en: Глава 18
01:45:00.000: en: Глава 19
01:50:50.000: en: Глава 20
01:56:40.000: en: Глава 21

Другие фильмы
У данной публикации пока нет комментариев.
Будь первым, оставь своё мнение в комментариях!
Информация
Посетители, находящиеся в группе Гости, не могут оставлять комментарии к данной публикации.
Самый популярный релиз недели
Донаты
Мы в соц. сетях / RSS

Лучшие релизы месяца
Лучшие SD недели
Лучшие 720p недели
Лучшие 1080p недели
Лучшие 4K недели
Вы недавно смотрели
Реклама
Последние комментарии
...

zik77

2 марта 2024 07:26

...

korelov

23 февраля 2024 14:35

...

Desol

21 февраля 2024 00:28

...

diabloq

20 февраля 2024 14:17

...

slightlymad

17 февраля 2024 21:01

Реклама